Хочешь или нет? / Tu veux... ou tu veux pas? (Тони Маршалл / Tonie Marshall) [2014 г., мелодрама, комедия, HDRip] Dub (iTunes)

 

Создавать темы 09-Фев-2015 07:27

-Хочешь или нет? / Tu veux... ou tu veux pas?- Производство: Франция, Бельгия
Год выпуска: 2014 г.
Жанр: мелодрама, комедия
Продолжительность: 01:27:26
Мировая премьера: 22 августа 2014
Российская премьера: 4 декабря 2014, «Каскад»
Перевод: Профессиональный (полное дублирование) [iTunes]-Режиссер: Тони Маршалл / Tonie Marshall
В ролях: Софи Марсо, Патрик Брюэль, Андре Вильм, Сильви Вартан, Франсуа Морель, Филипп Леллуш, Жан-Пьер Марьель, Патрик Брауде, Клод Перрон, Паскаль Демолон-Описание: Ламбер, раскаявшийся эротоман, пытается искупить свою вину, став семейным консультантом. Вынужденный в течение нескольких месяцев воздерживаться от близкого общения с дамами, он постоянно раздражается по пустякам. Ситуация усложняется, когда к нему на работу устраивается привлекательная и сексапильная Жюдит.- -Качество видео: HDRip
Контейнер: AVI
Видео кодек: XviD
Аудио кодек: AC3
Видео: 720x304 (2.37:1), 24 fps, XviD build 50 ~1844 kbps avg, 0.35 bit/pixel
Аудио: 48 kHz, AC3 Dolby Digital, 3/2 (L,C,R,l,r) + LFE ch, ~384 kbps
Cубтитры: отсутствуют

Media Info

General
Complete name : D:\H04esh.i1i.net.2014.D.HDRip.1400MB.avi
Format : AVI
Format/Info : Audio Video Interleave
File size : 1.37 GiB
Duration : 1h 27mn
Overall bit rate : 2 238 Kbps
Writing application : VirtualDubMod 1.5.10.2 (build 2540/release)
Writing library : VirtualDubMod build 2540/release
Video
ID : 0
Format : MPEG-4 Visual
Format profile : Advanced [email protected]
Format settings, BVOP : 2
Format settings, QPel : No
Format settings, GMC : No warppoints
Format settings, Matrix : Default (MPEG)
Codec ID : XVID
Codec ID/Hint : XviD
Duration : 1h 27mn
Bit rate : 1 845 Kbps
Width : 720 pixels
Height : 304 pixels
Display aspect ratio : 2.35:1
Frame rate : 24.000 fps
Color space : YUV
Chroma subsampling : 4:2:0
Bit depth : 8 bits
Scan type : Progressive
Compression mode : Lossy
Bits/(Pixel*Frame) : 0.351
Stream size : 1.13 GiB (82%)
Writing library : XviD 1.2.1 (UTC 2008-12-04)
Audio
ID : 1
Format : AC-3
Format/Info : Audio Coding 3
Mode extension : CM (complete main)
Format settings, Endianness : Big
Codec ID : 2000
Duration : 1h 27mn
Bit rate mode : Constant
Bit rate : 384 Kbps
Channel(s) : 6 channels
Channel positions : Front: L C R, Side: L R, LFE
Sampling rate : 48.0 KHz
Bit depth : 16 bits
Compression mode : Lossy
Stream size : 240 MiB (17%)
Alignment : Split accross interleaves
Interleave, duration : 42 ms (1.00 video frame)
Interleave, preload duratio : 500 ms

Скриншоты

Яндекс.Метрика
Рейтинг@Mail.ru