Одержимость / Whiplash (Дамьен Шазель / Damien Chazelle) [2014 г., драма, музыка, HDRip] MVO (iTunes)

 

Создавать темы 09-Фев-2015 07:26

-Одержимость / Whiplash- Производство: США / Bold Films, Blumhouse Productions, Right of Way Films
Год выпуска: 2014 г.
Жанр: драма, музыка
Продолжительность: 01:46:45
Мировая премьера: 16 января 2014
Российская премьера: 23 октября 2014, «Премиум Фильм»
Дата выхода DVD: 5 февраля 2015, «CP Дистрибуция»
Перевод: Профессиональный (многоголосый, закадровый) [iTunes]-Режиссер: Дамьен Шазель / Damien Chazelle
В ролях: Майлз Теллер, Дж.К. Симмонс, Пол Райзер, Мелисса Беноист, Остин Стоуэлл, Нат Лэнг, Крис Малки, Дэймон Гаптон, Макс Кэш, Сюанн Споук-Описание: Эндрю мечтает стать великим. Казалось бы, вот-вот его мечта осуществится. Юношу замечает настоящий гений, дирижер лучшего в стране оркестра. Желание Эндрю добиться успеха быстро становится одержимостью, а безжалостный наставник продолжает подталкивать его все дальше и дальше — за пределы человеческих возможностей. Кто выйдет победителем из этой схватки?- -Качество видео: HDRip
Контейнер: AVI
Видео кодек: XviD
Аудио кодек: AC3
Видео: 720x304 (2.37:1), 23.976 fps, XviD build 50 ~1439 kbps avg, 0.27 bit/pixel
Аудио: 48 kHz, AC3 Dolby Digital, 3/2 (L,C,R,l,r) + LFE ch, ~384 kbps
Cубтитры: отсутствуют

Media Info

General
Complete name : D:\0derzh1m0st.2014.P.HDRip.1400MB.avi
Format : AVI
Format/Info : Audio Video Interleave
File size : 1.37 GiB
Duration : 1h 46mn
Overall bit rate : 1 832 Kbps
Writing application : VirtualDubMod 1.5.10.2 (build 2540/release)
Writing library : VirtualDubMod build 2540/release
Video
ID : 0
Format : MPEG-4 Visual
Format profile : Advanced [email protected]
Format settings, BVOP : 2
Format settings, QPel : No
Format settings, GMC : No warppoints
Format settings, Matrix : Default (MPEG)
Codec ID : XVID
Codec ID/Hint : XviD
Duration : 1h 46mn
Bit rate : 1 440 Kbps
Width : 720 pixels
Height : 304 pixels
Display aspect ratio : 2.35:1
Frame rate : 23.976 fps
Color space : YUV
Chroma subsampling : 4:2:0
Bit depth : 8 bits
Scan type : Progressive
Compression mode : Lossy
Bits/(Pixel*Frame) : 0.274
Stream size : 1.07 GiB (79%)
Writing library : XviD 1.2.1 (UTC 2008-12-04)
Audio
ID : 1
Format : AC-3
Format/Info : Audio Coding 3
Mode extension : CM (complete main)
Format settings, Endianness : Big
Codec ID : 2000
Duration : 1h 46mn
Bit rate mode : Constant
Bit rate : 384 Kbps
Channel(s) : 6 channels
Channel positions : Front: L C R, Side: L R, LFE
Sampling rate : 48.0 KHz
Bit depth : 16 bits
Compression mode : Lossy
Stream size : 293 MiB (21%)
Alignment : Split accross interleaves
Interleave, duration : 42 ms (1.00 video frame)
Interleave, preload duratio : 500 ms

Скриншоты

Яндекс.Метрика
Рейтинг@Mail.ru