Спираль / Helix (Сезон: 2 / Серии: 1-4 из 13) (Брэд Тернер / Brad Turner...) [2014 - 2015 гг., Фантастика, триллер, WEB-DLRip] MVO [+ Original (Eng)] (BaibaKo) [обновляемая]

 

Создавать темы 09-Фев-2015 06:57

Спираль / Helix«The truth will spread» -Производство: США, Канада, Tall Ship Productions, Kaji Productions, Muse Entertainment Enterprises
Жанр: Фантастика, триллер
Год выпуска: 2014 - 2015 гг.
Продолжительность: 4 серии по ~00:41:40
Мировая премьера: 10 января 2014
Российская премьера: 3 марта 2014-Релиз:
Перевод: Профессиональный (многоголосый, закадровый) [BaibaKo]
Оригинальный аудиопоток: английский
Перевод: vipere
Озвучка: Юлия Котурбаш, Елена Григорьева, Алексей Кузнецов и Артемий Мирон
Монтаж: Виталий Мартыняк
Обложка: Антон Максимов-Режиссер: Брэд Тернер / Brad Turner, Джеримайя С. Чечик / Jeremiah S. Chechik, Дуан Кларк / Duane Clark
Сценарий: Камерон Порсандех, Шон Крауч, Хавьер Грилло-Марксуа
Продюсер: Линда Обст, Мэрил Дэвис, Хавьер Грилло-Марксуа
Оператор: Стивен МакНатт
Композитор: Райнхольд Хайль
Художник: Гай Лаланд, Луи-Рене Ландри, Дэвид Гоше
Монтаж: Рэнди Брикер, Елена Маганини, Блейк Маникис-В ролях: Билл Кэмпбелл, Хироюки Санада, Кира Загорски, Марк Ганиме, Джордан Хэйес, Мигвун Фэйрбразер, Нил Напье, Лучана Карро, Чимвемве Миллер, Катрин Лемье-Описание: Смертельный вирус, оказывающий небывалое разрушительное воздействие на организм человека, косит ряды учёных исследовательской базы в Арктике. Группа учёных из Центра по Контролю за Заболеваниями направлена туда расследовать причины эпидемии, и в результате вынуждена вести борьбу за спасение всего человечества.-Качество видео: WEB-DLRip
Контейнер: AVI
Видео кодек: XviD
Аудио кодек: MP3
Видео: 720x400 (1.80:1), 24 fps, XviD build 50 ~1512 kbps avg, 0.22 bit/pixel
Аудио: Русский; 48 kHz, MPEG Layer 3, 2 ch, ~192.00 kbps avg |BaibaKo|
Аудио #2: Английский; 48 kHz, MPEG Layer 3, 2 ch, ~192.00 kbps avg |Original|
Cубтитры: отсутствуют

Список серий

  • Сан Хосе (San Jose)
  • Воссоединение (Reunion)
  • Прививок (Scion)
  • Дэншо (Densho)

Media Info

Общее
Формат : AVI
Формат/Информация : Audio Video Interleave
Размер файла : 570 Мбайт
Продолжительность : 41 м.
Общий поток : 1912 Кбит/сек
Программа кодирования : VirtualDubMod 1.5.10.2 (build 2540/release)
Библиотека кодирования : VirtualDubMod build 2540/release
Видео
Идентификатор : 0
Формат : MPEG-4 Visual
Профиль формата : Advanced [email protected]
Параметр BVOP формата : 2
Параметр QPel формата : Нет
Параметр GMC формата : Без точки перехода
Параметр матрицы формата : Default (H.263)
Идентификатор кодека : XVID
Идентификатор кодека/Подсказка : XviD
Продолжительность : 41 м.
Битрейт : 1514 Кбит/сек
Ширина : 720 пикселей
Высота : 400 пикселей
Соотношение сторон : 16:9
Частота кадров : 24,000 кадра/сек
Цветовое пространство : YUV
Субдискретизация насыщенности : 4:2:0
Битовая глубина : 8 бит
Тип развёртки : Прогрессивная
Метод сжатия : С потерями
Бит/(Пиксели*Кадры) : 0.219
Размер потока : 451 Мбайт (79%)
Библиотека кодирования : XviD 1.2.1 (UTC 2008-12-04)
Аудио #1
Идентификатор : 1
Формат : MPEG Audio
Версия формата : Version 1
Профиль формата : Layer 3
Режим : Joint stereo
Расширение режима : MS Stereo
Идентификатор кодека : 55
Идентификатор кодека/Подсказка : MP3
Продолжительность : 41 м.
Вид битрейта : Постоянный
Битрейт : 192 Кбит/сек
Каналы : 2 канала
Частота : 48,0 КГц
Метод сжатия : С потерями
Размер потока : 57,2 Мбайт (10%)
Выравнивание : Соединение по промежуткам
Продолжительность промежутка : 42 мс. (1,00 видеокадр)
Время предзагрузки промежутка : 504 мс.
Аудио #2
Идентификатор : 2
Формат : MPEG Audio
Версия формата : Version 1
Профиль формата : Layer 3
Режим : Joint stereo
Расширение режима : MS Stereo
Идентификатор кодека : 55
Идентификатор кодека/Подсказка : MP3
Продолжительность : 41 м.
Вид битрейта : Постоянный
Битрейт : 192 Кбит/сек
Каналы : 2 канала
Частота : 48,0 КГц
Метод сжатия : С потерями
Размер потока : 57,2 Мбайт (10%)
Выравнивание : Соединение по промежуткам
Продолжительность промежутка : 42 мс. (1,00 видеокадр)
Время предзагрузки промежутка : 504 мс.

Скриншоты

--

Внимание! Раздача ведётся путём добавления новых серий!

  • Раздача ведётся путём добавления новых серий. При каждом добавлении создётся новый торрент.
  • Чтобы начать докачку новой серии, пользователям необходимо сделать следующее:
    1. остановить скачивание;
    2. удалить старый торрент у себя из клиента (старые серии удалять не надо);
    3. скачать новый торрент и запустить его у себя в клиенте вместо старого, при этом указать клиенту путь в старую папку, куда и должно происходить скачивание новых серий.
  • Ваш клиент при этом должен произвести хеширование (проверку) старой папки (если не производит сам - помогите ему сделать это), и будет докачивать только те серии которых у вас ещё нет. Старые серии при этом не удаляются, а продолжают раздаваться!
  • Eсли вы уже удалили старые серии, то предотвратить повторную закачку старых серий можно, отжав галочку в соответсвующих местах при запуске нового торрента. По возможности, желательно не удалять старые серии как можно дольше, чтобы релизёр не столько продолжал раздавать старые серии, а смог сконцентрироваться на новых.
  • Совет для тех, кто не хочет ждать перехеширования:
    Создайте ещё одну папку рядом с папкой сериала (рядом, а не в ней!!!). Каждую новую серию после удачной загрузки копируйте в новую папку так чтобы ваша основная папка всегда была пуста. Когда ваш новый торрент предложит вам закачать все файлы, выберете только последнюю. Для сидирования же укажите адрес новой папки.

Как закачать отдельный файл

1. Открыть торрент
2. Снять галки с тех файлов торрента, которые мы не хотим закачивать. Оставляем только на нужных нам файлах (файле).
3. Нажать О.К.
В клиенте utorrent
Инструкция
1) Открыть торрент

2) Снять галки с тех файлов торрента, которые мы не хотим закачивать:
* либо вручную, снимая с каждого файла галку (скрин №1)
* либо, нажав кнопку "Снять метки (Select None)", сняв сразу со всех файлов (скрин №2)
№1

№2

Оставляем только на нужных нам файлах (файле).

3)Нажать О.К
Яндекс.Метрика
Рейтинг@Mail.ru