[ Сегодня на трекере фрилич! Идет свободное скачивание без начисления Download ]

Глаза звезды / Starry Eyes (Кевин Колш / Kevin Kolsch, Деннис Уидмайер / Dennis Widmyer) [2014 г., ужасы, HDRip] DVO (DeadSno & den904)

 

Создавать темы 09-Фев-2015 06:55

-Глаза звезды / Starry Eyes- Производство: США
Год выпуска: 2014 г.
Жанр: ужасы
Продолжительность: 01:35:52
Мировая премьера: 8 марта 2014
Перевод: Любительский (двухголосый, закадровый) [DeadSno & den904]-Режиссер: Кевин Колш / Kevin Kolsch, Деннис Уидмайер / Dennis Widmyer
В ролях: Александра Эссоу, Аманда Фуллер, Ной Сеган, Фаббианн Терез, Шэйн Цвинер, Натали Кастилло, Пэт Хили, Ник Симмонс, Мария Олсен, Марк Сентер-Описание: Красивая молодая девушка Сара Уокер мечтает стать киноактрисой, но все попытки оборачиваются громким провалом. Сейчас она занимается ненавистным делом, выполняя поручения босса. Постоянно посещая прослушивания Сара надеется, что очередное станет судьбоносным и даст ей возможность проявить себя на больших экранах. Красавица готова пойти на всё, чтобы стать известной и популярной. Серия подозрительных прослушиваний у таинственного дуэта, представляющего интересы авторитетной кинокомпании, завершается успехом и мисс Уокер получает главную роль в новом фильме «Серебряный крик». Продюсер картины убеждён, что Сара станет настоящей звездой и вскоре исполнятся все её мечты. Расплата за славу и признание оказывается столь ужасной, что девушка будет очень сильно жалеть о своём решении сняться в кино..- -Качество видео: HDRip
Контейнер: AVI
Видео кодек: XviD
Аудио кодек: AC3
Видео: 720x304 (2.37:1), 23.976 fps, XviD build 50 ~1798 kbps avg, 0.34 bit/pixel
Аудио: 48 kHz, AC3 Dolby Digital, 2/0 (L,R) ch, ~224 kbps
Cубтитры: отсутствуют

Media Info

General
Complete name : D:\Glaza.zvezdy.2014.HDRip.avi
Format : AVI
Format/Info : Audio Video Interleave
File size : 1.36 GiB
Duration : 1h 35mn
Overall bit rate : 2 032 Kbps
Writing application : VirtualDubMod 1.5.10.2 (build 2540/release)
Writing library : VirtualDubMod build 2540/release
Video
ID : 0
Format : MPEG-4 Visual
Format profile : Advanced [email protected]
Format settings, BVOP : 2
Format settings, QPel : No
Format settings, GMC : No warppoints
Format settings, Matrix : Default (MPEG)
Codec ID : XVID
Codec ID/Hint : XviD
Duration : 1h 35mn
Bit rate : 1 798 Kbps
Width : 720 pixels
Height : 304 pixels
Display aspect ratio : 2.35:1
Frame rate : 23.976 fps
Color space : YUV
Chroma subsampling : 4:2:0
Bit depth : 8 bits
Scan type : Progressive
Compression mode : Lossy
Bits/(Pixel*Frame) : 0.343
Stream size : 1.20 GiB (89%)
Writing library : XviD 1.2.1 (UTC 2008-12-04)
Audio
ID : 1
Format : AC-3
Format/Info : Audio Coding 3
Mode extension : CM (complete main)
Format settings, Endianness : Big
Codec ID : 2000
Duration : 1h 35mn
Bit rate mode : Constant
Bit rate : 224 Kbps
Channel(s) : 2 channels
Channel positions : Front: L R
Sampling rate : 48.0 KHz
Bit depth : 16 bits
Compression mode : Lossy
Stream size : 154 MiB (11%)
Alignment : Split accross interleaves
Interleave, duration : 42 ms (1.00 video frame)
Interleave, preload duratio : 500 ms

Скриншоты

Яндекс.Метрика
Рейтинг@Mail.ru