Контрабанда / Contraband (Бальтасар Кормакур) [2011 г., боевик, криминал, BDRip] AVO (Карповский Антон)

 

Создавать темы 09-Фев-2015 06:41

Контрабанда / Contraband
Год выпуска: 2011
Производство: США, Universal Pictures
Жанр: боевик, криминал
Продолжительность: 01:49:38
Перевод: Авторский (одноголосый, закадровый) Карповский Антон
Субтитры: отсутствуют
Режиссер: Бальтасар Кормакур
В ролях: Марк Уолберг, Кейт Бекинсейл, Бен Фостер, Джованни Рибизи, Калеб Лэндри Джонс, Дж.К. Симмонс, Лаки Джонсон, Диего Луна, Роберт Уолберг, Джейсон Митчел.
Описание: Мир контрабандистов — это большие ставки и огромный риск. Cтоит оступиться лишь раз, и тебя ждет смерть. В этом мире Крис был лучшим, его называли Гудини, но он вышел из игры, женился и начал новую жизнь…
Сэмпл , , КиноПоиск
Качество видео: BDRip
Контейнер: AVI
Видео кодек: XviD
Аудио кодек: AC3
Видео: Xvid 720x304 23.976fps 1484kbps
Аудио : Dolby AC3 48000Hz 6ch 384kbps - Карповский Антон

Media Info

General
Complete name : C:\Downloads\Контрабанда(Карповский).avi
Format : AVI
Format/Info : Audio Video Interleave
File size : 1.44 GiB
Duration : 1h 49mn
Overall bit rate : 1 878 Kbps
Writing application : VirtualDubModRus 1.5.10.2 (build 2542/release)
Writing library : VirtualDubMod build 2542/release
Video
ID : 0
Format : MPEG-4 Visual
Format profile : Advanced [email protected]
Format settings, BVOP : 2
Format settings, QPel : No
Format settings, GMC : No warppoints
Format settings, Matrix : Custom
Codec ID : XVID
Codec ID/Hint : XviD
Duration : 1h 49mn
Bit rate : 1 485 Kbps
Width : 720 pixels
Height : 304 pixels
Display aspect ratio : 2.35:1
Frame rate : 23.976 fps
Color space : YUV
Chroma subsampling : 4:2:0
Bit depth : 8 bits
Scan type : Progressive
Compression mode : Lossy
Bits/(Pixel*Frame) : 0.283
Stream size : 1.14 GiB (79%)
Writing library : XviD 73
Audio
ID : 1
Format : AC-3
Format/Info : Audio Coding 3
Mode extension : CM (complete main)
Format settings, Endianness : Big
Codec ID : 2000
Duration : 1h 49mn
Bit rate mode : Constant
Bit rate : 384 Kbps
Channel(s) : 6 channels
Channel positions : Front: L C R, Side: L R, LFE
Sampling rate : 48.0 KHz
Bit depth : 16 bits
Compression mode : Lossy
Stream size : 301 MiB (20%)
Alignment : Split accross interleaves
Interleave, duration : 42 ms (1.00 video frame)
Interleave, preload duration : 500 ms

Скриншоты

Яндекс.Метрика
Рейтинг@Mail.ru