Культ / Cult (Сезон 1, полный) (Натан Хоуп / Nathan Hope) [2013г., Триллер, Драма, Детектив, WEB-DLRip] MVO (LostFilm)

 

Создавать темы 09-Фев-2015 06:39

Культ / Cult- Русское название: Культ
Оригинальное название: Cult
Страна: США
Год выпуска: 2013
Жанр: Триллер, Драма, Детектив-Озвучка: Студия LostFilm
Перевод: Многоголосый закадровый, профессиональный-Режиссер: Натан Хоуп / Nathan Hope
В главных ролях: Мэттью Дэвис, Джессика Лукас, Алона Тал, Роберт Неппер, Мари Авгеропулос, Джеймс Пиццинато, Кристиан Майкл Купер, Джеффри Пирс, Аиша Хиндс, Кадим Хардисон ...-Описание фильма:
Сериал Культ поведает нам историю блоггера - журналиста Джеффа Сэфтона, чей брат бесследно исчезает. Расследование Джеффа приводит его к темной стороне популярного ТВ-шоу "Культ". Единственный человек, который готов помочь Джеффу - Скай, молодой консультант, которую так же настораживают загадочные события, окружающие сериал. Чем больше Джефф и Скай погружаются в темный мир телесериала, тем больше они начинают понимать, что умопомрачительные повороты сюжета гораздо больше, чем просто вымысел для некоторых людей. Самые верные поклонники "Культа" готовы пойти на убийство, чтобы увидеть, что будет дальше.-Сезон: 1
Серии: 13 из 13 серий
Продолжительность: ~ 00:42:00 мин серия-Качество видео: WEB-DLRip
Формат: AVI
Видеокодек: XviD
Аудиокодек: Mp3
Видео: MPEG-4 Visual at 1627 Кбит/сек, 720 x 400 (1.800) at 23.976 fps
Аудио: MPEG Audio at 192 Кбит/сек, 2 канала, 48,0 КГц
- -

Список серий:

  • Ты следующий (You're Next)
  • В крови (In the Blood)
  • Быть Билли (Being Billy)
  • Вступай в программу (Get with the Program)
  • Поцелуй (The Kiss)
  • Праведный бой (The Good Fight)
  • Страдания детей (Suffer the Children)
  • Знакомство со злом (The Devil You Know)
  • Встреча с волшебником (Off to See the Wizard)
  • Пророчество святой Клары (The Prophecy of St. Clare)
  • Пролистывая сценарий (Flip the Script)
  • 1987
  • Исполнительный продюсер Стивен Рэй (Executive Producer Steven Rae)
-

MediaInfo:

Общее
Полное имя                               : E:\_Сериалы\Культ (Cult)\Cult.S01.rus.LostFilm\Cult.S01E01.rus.LostFilm.TV.avi
Формат                                   : AVI
Формат/Информация                        : Audio Video Interleave
Размер файла                             : 557 Мбайт
Продолжительность                        : 42 м.
Режим общего битрейта                    : Переменный
Общий поток                              : 1826 Кбит/сек
Программа кодирования                    : Nandub v1.0rc2
Библиотека кодирования                   : Nandub build 1853/release
Видео
Идентификатор                            : 0
Формат                                   : MPEG-4 Visual
Профиль формата                          : [email protected]
Параметр BVOP формата                    : Нет
Параметр QPel формата                    : Нет
Параметр GMC формата                     : Без точки перехода
Параметр матрицы формата                 : Default (H.263)
Идентификатор кодека                     : XVID
Идентификатор кодека/Подсказка           : XviD
Продолжительность                        : 42 м.
Битрейт                                  : 1627 Кбит/сек
Ширина                                   : 720 пикселей
Высота                                   : 400 пикселей
Соотношение сторон                       : 16:9
Частота кадров                           : 23,976 кадра/сек
Цветовое пространство                    : YUV
Субдискретизация насыщенности            : 4:2:0
Битовая глубина                          : 8 бит
Тип развёртки                            : Прогрессивная
Метод сжатия                             : С потерями
Бит/(Пиксели*Кадры)                      : 0.236
Размер потока                            : 496 Мбайт (89%)
Библиотека кодирования                   : XviD 1.2.1 (UTC 2008-12-04)
Аудио
Идентификатор                            : 1
Формат                                   : MPEG Audio
Версия формата                           : Version 1
Профиль формата                          : Layer 3
Режим                                    : Joint stereo
Идентификатор кодека                     : 55
Идентификатор кодека/Подсказка           : MP3
Продолжительность                        : 42 м.
Вид битрейта                             : Переменный
Битрейт                                  : 192 Кбит/сек
Каналы                                   : 2 канала
Частота                                  : 48,0 КГц
Метод сжатия                             : С потерями
Размер потока                            : 57,0 Мбайт (10%)
Выравнивание                             : Соединение по промежуткам
Продолжительность промежутка             : 24  мс. (0,58 видеокадр)
Время предзагрузки промежутка            : 528  мс.
Библиотека кодирования                   : LAME3.97b
Настройки программы                      : -m j -V 4 -q 3 -lowpass 18.6 --abr 192
-

Внимание! Раздача ведётся путём добавления новых серий!

Внимание! Раздача ведётся путём добавления новых серий; при каждом добавлении создётся новый торрент. Чтобы начать докачку новой серии, пользователям необходимо сделать следующее:
(1) остановить скачивание,
(2) удалить старый торрент у себя из клиента (старые серии удалять не надо),
(3) скачать новый торрент и запустить его у себя в клиенте вместо старого, при этом указать клиенту путь в старую папку куда и должно происходить скачивание новых серий.
Ваш клиент при этом должен произвести хеширование (проверку) старой папки (если не производит сам - помогите ему сделать это), и будет докачивать только те серии которых у вас ещё нет. Старые серии при этом не удаляются, а продолжают раздаваться!
Eсли вы уже удалили старые серии, то предотвратить повторную закачку старых серий можно, отжав галочку в соответствующих местах при запуске нового торрента.
-Скриншоты:
-

Еще

-Добавлена тринадцатая, заключительная, серия первого сезона
Яндекс.Метрика
Рейтинг@Mail.ru