[ Сегодня на трекере фрилич! Идет свободное скачивание без начисления Download ]

Астерикс: Земля Богов / Asterix: Le domaine des dieux (2014) BDRip 720p | 48fps

 

Создавать темы 08-Фев-2015 21:56

Астерикс: Земля Богов / Asterix: Le domaine des dieux (2014) BDRip 720p | 48fps«Самый громкий! Самый остроумный! Самый увлекательный!»- Информация о фильме
Название: Астерикс: Земля Богов
Оригинальное название: Asterix: Le domaine des dieux
Год выхода: 2014
Жанр: Мультфильм, приключения, фэнтези, комедия
Режиссер: Луис Клиши, Александр Астье
В ролях: Роже Карель, Лоран Дойч, Лоран Лафитт, Александр Астье, Ален Шаба, Эли Семун, Жеральдин Накаш, Артюс де Пенгерн, Лионель Астье, Франсуа Морель
Описание фильма:
Астерикс и его лучший друг Обеликс продолжают свою многолетнюю борьбу с Цезарем, который хочет наконец-то расправиться с неукротимыми галлами. Вокруг деревни Астерикса Цезарь приказывает построить новый Рим — Землю Богов. В галльской деревне хаос и смятение. Но Астерикс и Обеликс не сдаются!
Страна: Франция
Студия: Canal+ [fr], M6 Films
Продолжительность: 01:25:34
Перевод: Дублированный
Субтитры: Отсутствуют
Дата мировой премьеры: 26 ноября 2014
Дата российской премьеры: 18 декабря 2014, «Парадиз»
Дата выхода DVD релиза: 10 февраля 2015, «Парадиз / Активижен»
Дата выхода Blu-Ray релиза: 10 февраля 2015, «Парадиз / Активижен»
Файл
Формат: MKV
Кодек: MPEG-4 AVC/H.264
Качество: BDRip 720p
Видео: ~ 6674 Кбит/сек, 1280 x 720, 47.952 кадров/сек
Аудио: AC3 5.1, 48.0 KHz, 640 Кбит/сек - Русский

MediaInfo

Общее
Уникальный идентификатор : 235297511505917160187848055881949876070 (0xB104A6FEC3D3A245BD2C877260598F66)
Полное имя : D:\Торренты\Asterix. The Mansions of the Gods 48fps.mkv
Формат : Matroska
Версия формата : Version 2
Размер файла : 4,46 Гбайт
Продолжительность : 1 ч. 25 м.
Общий поток : 7462 Кбит/сек
Название фильма : Asterix: The Mansions of the Gods (2014) Blu-ray 3D 1080p
Дата кодирования : UTC 2015-02-07 18:00:28
Программа кодирования : mkvmerge v6.9.1 ('Blue Panther') 64bit built on Apr 18 2014 18:23:38
Библиотека кодирования : libebml v1.3.0 + libmatroska v1.4.1
Видео
Идентификатор : 1
Формат : AVC
Формат/Информация : Advanced Video Codec
Профиль формата : [email protected]
Параметр CABAC формата : Да
Параметр ReFrames формата : 6 кадров
Идентификатор кодека : V_MPEG4/ISO/AVC
Продолжительность : 1 ч. 25 м.
Битрейт : 6674 Кбит/сек
Ширина : 1280 пикселей
Высота : 720 пикселей
Соотношение сторон : 16:9
Режим частоты кадров : Постоянный
Частота кадров : 47,952 кадров/сек
Цветовое пространство : YUV
Субдискретизация насыщенности : 4:2:0
Битовая глубина : 8 бит
Тип развёртки : Прогрессивная
Бит/(Пиксели*Кадры) : 0.151
Размер потока : 3,99 Гбайт (89%)
Заголовок : Release by mimok
Библиотека кодирования : x264 core 130 r2273 b3065e6
Настройки программы : cabac=1 / ref=6 / deblock=1:-1:-1 / analyse=0x3:0x133 / me=umh / subme=8 / psy=1 / psy_rd=1.00:0.15 / mixed_ref=1 / me_range=20 / chroma_me=1 / trellis=2 / 8x8dct=1 / cqm=0 / deadzone=21,11 / fast_pskip=0 / chroma_qp_offset=-3 / threads=6 / lookahead_threads=2 / sliced_threads=0 / nr=0 / decimate=0 / interlaced=0 / bluray_compat=0 / constrained_intra=0 / bframes=8 / b_pyramid=2 / b_adapt=2 / b_bias=0 / direct=1 / weightb=1 / open_gop=0 / weightp=2 / keyint=250 / keyint_min=25 / scenecut=40 / intra_refresh=0 / rc=crf / mbtree=0 / crf=19.0 / qcomp=0.63 / qpmin=10 / qpmax=51 / qpstep=4 / ip_ratio=1.40 / pb_ratio=1.30 / aq=1:1.20
Default : Да
Forced : Нет
Аудио
Идентификатор : 2
Формат : AC-3
Формат/Информация : Audio Coding 3
Расширение режима : CM (complete main)
Параметр Endianness формата : Big
Идентификатор кодека : A_AC3
Продолжительность : 1 ч. 25 м.
Вид битрейта : Постоянный
Битрейт : 640 Кбит/сек
Каналы : 6 каналов
Расположение каналов : Front: L C R, Side: L R, LFE
Частота : 48,0 КГц
Битовая глубина : 16 бит
Метод сжатия : С потерями
Размер потока : 392 Мбайт (9%)
Заголовок : Dub
Язык : Russian
Default : Да
Forced : Нет

Скриншоты:

Яндекс.Метрика
Рейтинг@Mail.ru