Легенда о Брюсе Ли / The Legend of Bruce Lee (1-50 серии из 50) (Ли Вонги) [2008 г., Биография, боевые искусства, TVRip] VO

 

Создавать темы 08-Фев-2015 12:04

Легенда о Брюсе Ли / The Legend of Bruce Lee50 Серий из 50 Год выпуска: 2008
Страна: Китай, CCTV (China Central Television)
Жанр: Биография, боевые искусства
Продолжительность: 50 х ~ 00:46:00
Перевод: Любительский (одноголосый) Zamez
Режиссер: Ли Вонги
В ролях: Квок-Куен Чан, Мишель Мисти Лэнг, Тед Е. Дюран, Хазен МакИнтайр, Лоюн Ванг, Наталья Дзюбло, Трэйси Энн Вульф, Ке Гай, Чжоу Чжоу, Марк Дакаскос, Гэри Дениэлс
Описание: Уникальный сериал-биография величайшего мастера боевых искусств Брюса Ли, начиная с его детства и заканчивая трагической гибелью. Китайские кинематографисты с удивительной точностью воссоздали все интерьеры и обстоятельства съемок фильмов Брюса Ли, рассказали о его семье, о его трудном пути от мальчика-ученика престижного колледжа до суперзвезды мирового кино!

Качество: TVRip
Формат: AVI
Видео кодек: XviD
Аудио кодек: MP3
Видео: 704x384 (1.83:1), 25 fps, XviD build 50, 1499 kbps avg, 0.22 bit/pixel
Аудио: 48 kHz, MPEG Layer 3, 2 ch, ~128.00 kbps avg

MI

Общее
Полное имя                               : D:\Video\The Legend of Bruce Lee.2008.VO.Zamez\The Legend of Bruce Lee.s01e01.avi
Формат                                   : AVI
Формат/Информация                        : Audio Video Interleave
Размер файла                             : 543 Мбайт
Продолжительность                        : 46 м.
Общий поток                              : 1637 Кбит/сек
Программа кодирования                    : VirtualDubMod 1.5.10.2 (build 2540/release)
Библиотека кодирования                   : VirtualDubMod build 2540/release
Видео
Идентификатор                            : 0
Формат                                   : MPEG-4 Visual
Профиль формата                          : Advanced [email protected]
Параметр BVOP формата                    : 2
Параметр QPel формата                    : Нет
Параметр GMC формата                     : Без точки перехода
Параметр матрицы формата                 : Default (MPEG)
Идентификатор кодека                     : XVID
Идентификатор кодека/Подсказка           : XviD
Продолжительность                        : 46 м.
Битрейт                                  : 1499 Кбит/сек
Ширина                                   : 704 пикселя
Высота                                   : 384 пикселя
Соотношение сторон                       : 1,85:1
Частота кадров                           : 25,000 кадров/сек
Цветовое пространство                    : YUV
Субдискретизация насыщенности            : 4:2:0
Битовая глубина                          : 8 бит
Тип развёртки                            : Прогрессивная
Метод сжатия                             : С потерями
Бит/(Пиксели*Кадры)                      : 0.222
Размер потока                            : 498 Мбайт (92%)
Библиотека кодирования                   : XviD 1.2.1 (UTC 2008-12-04)
Аудио
Идентификатор                            : 1
Формат                                   : MPEG Audio
Версия формата                           : Version 1
Профиль формата                          : Layer 3
Режим                                    : Joint stereo
Расширение режима                        : MS Stereo
Идентификатор кодека                     : 55
Идентификатор кодека/Подсказка           : MP3
Продолжительность                        : 46 м.
Вид битрейта                             : Постоянный
Битрейт                                  : 128 Кбит/сек
Каналы                                   : 2 канала
Частота                                  : 48,0 КГц
Метод сжатия                             : С потерями
Размер потока                            : 42,5 Мбайт (8%)
Выравнивание                             : Соединение по промежуткам
Продолжительность промежутка             : 40  мс. (1,00 видеокадр)
Время предзагрузки промежутка            : 504  мс.

Скриншоты:

Яндекс.Метрика
Рейтинг@Mail.ru