NG: Суперсооружения: Мегазаводы. Джон Дир / Megafactories: John Deere [2006 г., Документальный, научно-познавательный, техника, HDTVRip]

 

Создавать темы 04-Окт-2013 19:00

NG: Суперсооружения: Мегазаводы. Джон Дир / Megafactories: John Deere
Год выпуска: 2006 г.
Страна: США, National Geographic Channel
Жанр: Документальный, научно-познавательный, техника
Продолжительность: 00:47:33
Перевод: Одноголосый закадровый
Cубтитры: нет
Описание: Завод John Deere занимает площадь в 300,000 квадратный метров, на нём трудятся 2000 рабочих, 49 роботизированных сварочных комплексов, 8 лазерных резаков и 14 километров подвесных монорельсов. Они штампуют, прессуют, режут и сваривают 60,000 тонн стали в комбайн John Deere STS – гигантскую машину для сбора урожая. В начале прецизионные лазерные режущие станки создают заготовки для большей части этой мини-фабрики на колёсах, состоящей из 17,000 частей. Затем собирается его 450-килограммовый резак и массивный контейнер для зерна. Каждый год завод использует для сварки 400 тонн электродов – этого количества хватило бы, чтобы опоясать экватор. Когда комбайн собран, ему предстоит пройти семичасовой процесс покраски в фирменный зелёный цвет John Deere. При создании любых модификаций комбайна используется лаборатория завода, оборудованная по последнему слову техники, где в условиях виртуальной реальности оцениваются затраты на переоборудование конвейера. Такой подход позволяет сэкономить значительные денежные и временные ресурсы компании. Используя инновационные технологии 21 века и талант своих конструкторов, завод John Deere производит самые мощные в сельскохозяйственной отрасли машины.
Качество: HDSATRip
Качество видео: HDTVRip
Формат видео: AVI
Видео кодек: XviD
Аудио кодек: AC3
Видео: 720х400 25.00fps 1800kbps
Аудио: AC3 6ch, 48kHz, 192 kbps

Скриншоты


MediaInfo:

Формат : AVI
Формат/Информация : Audio Video Interleave
Размер файла : 644 Мбайт
Продолжительность : 44 м.
Общий поток : 2002 Кбит/сек
Программа кодирования : VirtualDubMod 1.5.10.3 | www.virtualdub-fr.org || (build 2550/release)
Библиотека кодирования : VirtualDubMod build 2550/release
Видео
Идентификатор : 0
Формат : MPEG-4 Visual
Профиль формата : Advanced [email protected]
Параметр BVOP формата : 2
Параметр QPel формата : Нет
Параметр GMC формата : Без точки перехода
Параметр матрицы формата : Default (H.263)
Идентификатор кодека : XVID
Идентификатор кодека/Подсказка : XviD
Продолжительность : 44 м.
Битрейт : 1800 Кбит/сек
Ширина : 720 пикселей
Высота : 400 пикселей
Соотношение сторон : 16:9
Частота кадров : 25,000 кадров/сек
Цветовое пространство : YUV
Субдискретизация насыщенности : 4:2:0
Битовая глубина : 8 бит
Тип развёртки : Прогрессивная
Метод сжатия : С потерями
Бит/(Пиксели*Кадры) : 0.250
Размер потока : 579 Мбайт (90%)
Библиотека кодирования : XviD 1.2.1 (UTC 2008-12-04)
Аудио
Идентификатор : 1
Формат : AC-3
Формат/Информация : Audio Coding 3
Расширение режима : CM (complete main)
Идентификатор кодека : 2000
Продолжительность : 44 м.
Вид битрейта : Постоянный
Битрейт : 192 Кбит/сек
Каналы : 2 канала
Расположение каналов : Front: L R
Частота : 48,0 КГц
Битовая глубина : 16 бит
Метод сжатия : С потерями
Размер потока : 61,8 Мбайт (10%)
Выравнивание : Разделение по промежуткам
Продолжительность промежутка : 40 мс. (1,00 видеокадр)
Время предзагрузки промежутка : 500 мс.
Яндекс.Метрика
Рейтинг@Mail.ru