Бёрдмэн / Birdman (Алехандро Гонсалес Иньярриту / Alejandro González Iñárritu) [2014 г., драма, комедия, HDRip] Dub (Чистый звук)

 

Создавать темы 05-Фев-2015 04:51

-Бёрдмэн / Birdman- Производство: США, Канада / New Regency Pictures, M Prods, Grisbi Productions
Год выпуска: 2014 г.
Жанр: драма, комедия
Продолжительность: 01:59:50
Мировая премьера: 27 августа 2014
Российская премьера: 22 января 2015, «Двадцатый Век Фокс СНГ»
Перевод: Профессиональный (полное дублирование) [Чистый звук]-Режиссер: Алехандро Гонсалес Иньярриту / Alejandro González Iñárritu
В ролях: Майкл Китон, Зак Галифианакис, Эдвард Нортон, Андреа Райзборо, Эми Райан, Эмма Стоун, Наоми Уоттсон, Кенни Чин, Жамаль Гаррисон-Лоу, Джереми Шамос-Описание: В центре сюжета бывший актер, некогда сыгравший роль популярного супергероя Бёрдмэна, и теперь, переступая через свое эго, он решает принять участие в новой бродвейской постановке с целью вернуть себе былую славу, блеск и величие.-Качество видео: HDRip
Контейнер: AVI
Видео кодек: XviD
Аудио кодек: AC3
Видео: 720x384 (1.88:1), 23.976 fps, XviD build 50 ~1438 kbps avg, 0.22 bit/pixel
Аудио: 48 kHz, AC3 Dolby Digital, 2/0 (L,R) ch, ~192 kbps
Cубтитры: отсутствуют

Media Info

General
Complete name : D:\B1r9man.2014.D.HDRip.1400MB.avi
Format : AVI
Format/Info : Audio Video Interleave
File size : 1.37 GiB
Duration : 1h 59mn
Overall bit rate : 1 640 Kbps
Writing application : VirtualDubMod 1.5.10.2 (build 2540/release)
Writing library : VirtualDubMod build 2540/release
Video
ID : 0
Format : MPEG-4 Visual
Format profile : Advanced [email protected]
Format settings, BVOP : 2
Format settings, QPel : No
Format settings, GMC : No warppoints
Format settings, Matrix : Default (MPEG)
Codec ID : XVID
Codec ID/Hint : XviD
Duration : 1h 59mn
Bit rate : 1 439 Kbps
Width : 720 pixels
Height : 384 pixels
Display aspect ratio : 1.85:1
Frame rate : 23.976 fps
Color space : YUV
Chroma subsampling : 4:2:0
Bit depth : 8 bits
Scan type : Progressive
Compression mode : Lossy
Bits/(Pixel*Frame) : 0.217
Stream size : 1.20 GiB (88%)
Writing library : XviD 1.2.1 (UTC 2008-12-04)
Audio
ID : 1
Format : AC-3
Format/Info : Audio Coding 3
Mode extension : CM (complete main)
Format settings, Endianness : Big
Codec ID : 2000
Duration : 1h 59mn
Bit rate mode : Constant
Bit rate : 192 Kbps
Channel(s) : 2 channels
Channel positions : Front: L R
Sampling rate : 48.0 KHz
Bit depth : 16 bits
Compression mode : Lossy
Stream size : 164 MiB (12%)
Alignment : Split accross interleaves
Interleave, duration : 42 ms (1.00 video frame)
Interleave, preload duratio : 500 ms

Скриншоты

Яндекс.Метрика
Рейтинг@Mail.ru