Весь этот джаз / All That Jazz (Боб Фосси / Bob Fosse) [1979 г., мюзикл, фэнтези, драма, музыка, BDRip] AVO (А. Михалев, Л. Володарский) + original (Eng)

 

Создавать темы 05-Фев-2015 04:38

Весь этот джаз / All That Jazz- Год выпуска: 1979
Производство: США, Columbia Pictures Corporation, Twentieth Century Fox Film Corporation
Жанр: мюзикл, фэнтези, драма, музыка
Продолжительность: 02:03:13-Перевод: Авторский (одноголосый, закадровый) А. Михалев
Перевод 2: Авторский (одноголосый, закадровый) Л. Володарский
Оригинальный аудиопоток: английский-Режиссер: Боб Фосси / Bob Fosse
В ролях: Рой Шайдер, Джессика Лэнг, Лиленд Палмер, Энн Райнкинг, Клифф Гормен, Бен Верин, Эржебет Фолди, Майкл Толан, Макс Райт, Уильям ЛеМассена, Джон Литгоу, Уоллес Шоун-Описание: Фильм о творческой карьере Джо Гидеона, его взаимоотношениях с женщинами, в частности, с бывшей женой Одри и дочерью Мишель, где он показан эгоцентричным трудоголиком, который доводит себя до инфаркта.-Сэмпл , , КиноПоиск-Качество видео: BDRip
Контейнер: AVI
Видео кодек: XviD
Аудио кодек: AC3
Видео: 704x384 (1.83:1), 23.976 fps, XviD build 65 ~1863 kbps avg, 0.29 bit/pixel
Аудио : 48 kHz, AC3 Dolby Digital, 2/0 (L,R) ch, ~192 kbps - А. Михалев
Аудио #2: 48 kHz, AC3 Dolby Digital, 2/0 (L,R) ch, ~192 kbps - Л. Володарский
Аудио #3: 48 kHz, AC3 Dolby Digital, 3/0 (L,C,R) ch, ~224 kbps - Оригинал
Субтитры: отсутствуют

Media Info

General
Complete name : C:\Users\Ivan\Desktop\Ves.etot.dzhaz.1979.BDRip.avi
Format : AVI
Format/Info : Audio Video Interleave
Format profile : OpenDML
File size : 2.13 GiB
Duration : 2h 3mn
Overall bit rate : 2 478 Kbps
Movie name : Весь этот джаз / Вся эта суета / All That Jazz (1979) BDRip
Genre : мюзикл, драма, музыка
Writing application : VirtualDubMod 1.5.10.2 (build 2540/release)
Video
ID : 0
Format : MPEG-4 Visual
Format profile : Advanced [email protected]
Format settings, BVOP : 1
Format settings, QPel : No
Format settings, GMC : No warppoints
Format settings, Matrix : Custom
Codec ID : XVID
Codec ID/Hint : XviD
Duration : 2h 3mn
Bit rate : 1 846 Kbps
Width : 704 pixels
Height : 384 pixels
Display aspect ratio : 1.85:1
Frame rate : 23.976 fps
Color space : YUV
Chroma subsampling : 4:2:0
Bit depth : 8 bits
Scan type : Progressive
Compression mode : Lossy
Bits/(Pixel*Frame) : 0.285
Stream size : 1.59 GiB (74%)
Writing library : XviD 65
Audio #1
ID : 1
Format : AC-3
Format/Info : Audio Coding 3
Mode extension : CM (complete main)
Format settings, Endianness : Big
Codec ID : 2000
Duration : 2h 3mn
Bit rate mode : Constant
Bit rate : 192 Kbps
Channel(s) : 2 channels
Channel positions : Front: L R
Sampling rate : 48.0 KHz
Bit depth : 16 bits
Compression mode : Lossy
Stream size : 169 MiB (8%)
Alignment : Split accross interleaves
Interleave, duration : 42 ms (1.00 video frame)
Interleave, preload duratio : 500 ms
Title : А. Михалев
Audio #2
ID : 2
Format : AC-3
Format/Info : Audio Coding 3
Mode extension : CM (complete main)
Format settings, Endianness : Big
Codec ID : 2000
Duration : 2h 3mn
Bit rate mode : Constant
Bit rate : 192 Kbps
Channel(s) : 2 channels
Channel positions : Front: L R
Sampling rate : 48.0 KHz
Bit depth : 16 bits
Compression mode : Lossy
Stream size : 169 MiB (8%)
Alignment : Split accross interleaves
Interleave, duration : 42 ms (1.00 video frame)
Interleave, preload duratio : 500 ms
Title : Л. Володарский
Audio #3
ID : 3
Format : AC-3
Format/Info : Audio Coding 3
Mode extension : CM (complete main)
Format settings, Endianness : Big
Codec ID : 2000
Duration : 2h 3mn
Bit rate mode : Constant
Bit rate : 224 Kbps
Channel(s) : 3 channels
Channel positions : Front: L C R
Sampling rate : 48.0 KHz
Bit depth : 16 bits
Compression mode : Lossy
Stream size : 197 MiB (9%)
Alignment : Split accross interleaves
Interleave, duration : 42 ms (1.00 video frame)
Interleave, preload duratio : 500 ms
Title : Оригинал

Скриншоты

Яндекс.Метрика
Рейтинг@Mail.ru