Индиана Джонс: В поисках утраченного ковчега / Indiana Jones: Raiders of the Lost Ark (Стивен Спилберг / Steven Spielberg) [1981 г., Приключения, HDTVRip-AVC] AVO (Михалев, 2хГаврилов, Володарский)

 

Создавать темы 01-Фев-2015 17:36

Индиана Джонс: В поисках утраченного ковчега / Indiana Jones: Raiders of the Lost Ark
«Indiana Jones - the new hero from the creators of JAWS and STAR WARS»
- Год выпуска: 1981
Мировая премьера: 12 июня 1981 (США)
Производство: CША
Жанр: Приключения
Продолжительность: 01:55:13
Перевод: Авторский (одноголосый) Алексей Михалев, Андрей Гаврилов (ранний, поздний), Леонид Володарский;
Субтитры: русские
Режиссер: Стивен Спилберг / Steven Spielberg
В ролях: Хэррисон Форд / Harrison Ford, Карен Аллен / Karen Allen, Пол Фриман / Paul Freeman, Роналд Лэйси / Ronald Lacey, Джон Риз-Дэйвис / John Rhys-Davies, Денхолм Эллиотт / Denholm Elliott, Вольф Калер / Wolf Kahler, Энтони Хиггинс / Anthony Higgins, Вик Тэблиэн / Vic Tablian, Альфред Молина / Alfred Molina
Описание: Легендарные режиссеры Стивен Спилберг и Джордж Лукас объединили таланты и создали Индиану Джонса, вездесущего и бесстрашного археолога, которому правительство США поручило найти обладающий таинственными силами "Ковчег Десяти Заповедей" раньше, чем его могут заполучить нацисты. Индиана (Форд) и Мэрион Рэйвенвуд (Аллен) пускаются в захватывающие дух приключения, от которых получают бездну удовольствия и взрослые, и дети. Один из самых увлекательных приключенческих фильмов. Продолжения: "Индиана Джонс и Храм Судьбы", "Индиана Джонс и последний крестовый поход". "Оскары" за монтаж, работу художников, звук и визуальные эффекты. Номинации за лучший фильм, режиссуру, операторскую работу, музыку.. (Иванов М.)
Качество видео: HDTVRip-AVC
Контейнер: MKV
Видео кодек: MPEG4-AVC / H.264
Видео: 1056x448 / 3148 kbps / 23,976 fps / 2,35:1 / High Profile 4.1
Аудио#1: 48 kHz, AC3 Dolby Digital, 3/2 (L,C,R,l,r) + LFE ch, ~448.00 kbps avg - Михалев
Аудио#2: 48 kHz, AC3 Dolby Digital, 2/0 (L,R) ch, ~192 kbps avg - Гаврилов ранний
Аудио#3: 48 kHz, AC3 Dolby Digital, 3/2 (L,C,R,l,r) + LFE ch, ~384.00 kbps avg - Гаврилов поздний
Аудио#4: 48 kHz, AC3 Dolby Digital, 2/0 (L,R) ch, ~192 kbps avg - Володарский

Media Info

Формат : Matroska
Версия формата : Version 4 / Version 2
Размер файла : 3,51 Гбайт
Продолжительность : 1 ч. 55 м.
Общий поток : 4367 Кбит/сек
Название фильма : Indiana Jones.Raiders Of The Lost Ark.1981.HDTVRip-AVC.Mihalev.2xGavrilov.Volodarskiy -=anton966=-
Дата кодирования : UTC 2015-01-30 18:55:39
Программа кодирования : mkvmerge v7.5.0 ('Glass Culture') 64bit built on Jan 4 2015 16:48:44
Библиотека кодирования : libebml v1.3.1 + libmatroska v1.4.2
Attachements : Poster.jpg
_STATISTICS_WRITING_APP : mkvmerge v7.5.0 ('Glass Culture') 64bit built on Jan 4 2015 16:48:44
_STATISTICS_WRITING_DATE_UTC : 2015-01-30 18:55:39
_STATISTICS_TAGS : BPS DURATION NUMBER_OF_FRAMES NUMBER_OF_BYTES
DURATION : 01:49:48.540000000
NUMBER_OF_FRAMES : 554
NUMBER_OF_BYTES : 36255
Видео
Идентификатор : 1
Формат : AVC
Формат/Информация : Advanced Video Codec
Профиль формата : [email protected]
Параметр CABAC формата : Да
Параметр ReFrames формата : 8 кадров
Идентификатор кодека : V_MPEG4/ISO/AVC
Продолжительность : 1 ч. 55 м.
Битрейт : 3064 Кбит/сек
Ширина : 1056 пикселей
Высота : 448 пикселей
Соотношение сторон : 2,35:1
Режим частоты кадров : Постоянный
Частота кадров : 23,976 кадра/сек
Цветовое пространство : YUV
Субдискретизация насыщенности : 4:2:0
Битовая глубина : 8 бит
Тип развёртки : Прогрессивная
Бит/(Пиксели*Кадры) : 0.270
Размер потока : 2,47 Гбайт (70%)
Заголовок : Indiana Jones.Raiders Of The Lost Ark.1981.HDTVRip-AVC (1056x448)
Библиотека кодирования : x264 core 142 r2491 24e4fed
Настройки программы : cabac=1 / ref=8 / deblock=1:-3:-3 / analyse=0x3:0x113 / me=umh / subme=11 / psy=1 / psy_rd=1.05:0.15 / mixed_ref=1 / me_range=32 / chroma_me=1 / trellis=2 / 8x8dct=1 / cqm=0 / deadzone=21,11 / fast_pskip=1 / chroma_qp_offset=-3 / threads=12 / lookahead_threads=2 / sliced_threads=0 / nr=0 / decimate=1 / interlaced=0 / bluray_compat=0 / constrained_intra=0 / bframes=9 / b_pyramid=2 / b_adapt=2 / b_bias=0 / direct=1 / weightb=1 / open_gop=0 / weightp=2 / keyint=250 / keyint_min=23 / scenecut=40 / intra_refresh=0 / rc=crf / mbtree=0 / crf=18.8 / qcomp=0.60 / qpmin=0 / qpmax=69 / qpstep=4 / ip_ratio=1.47 / pb_ratio=1.30 / aq=1:1.00
Язык : English
Default : Да
Forced : Нет
_STATISTICS_WRITING_APP : mkvmerge v7.5.0 ('Glass Culture') 64bit built on Jan 4 2015 16:48:44
_STATISTICS_WRITING_DATE_UTC : 2015-01-30 18:55:39
_STATISTICS_TAGS : BPS DURATION NUMBER_OF_FRAMES NUMBER_OF_BYTES
DURATION : 01:55:13.073000000
NUMBER_OF_FRAMES : 165748
NUMBER_OF_BYTES : 2720335587
Аудио #1
Идентификатор : 2
Формат : AC-3
Формат/Информация : Audio Coding 3
Расширение режима : CM (complete main)
Параметр Endianness формата : Big
Идентификатор кодека : A_AC3
Продолжительность : 1 ч. 55 м.
Вид битрейта : Постоянный
Битрейт : 448 Кбит/сек
Каналы : 6 каналов
Расположение каналов : Front: L C R, Side: L R, LFE
Частота : 48,0 КГц
Битовая глубина : 16 бит
Метод сжатия : С потерями
Размер потока : 369 Мбайт (10%)
Заголовок : Mihalev AC3 5.1 @ 448 kbps
Язык : Russian
Default : Да
Forced : Нет
Аудио #2
Идентификатор : 3
Формат : AC-3
Формат/Информация : Audio Coding 3
Расширение режима : CM (complete main)
Параметр Endianness формата : Big
Идентификатор кодека : A_AC3
Продолжительность : 1 ч. 55 м.
Вид битрейта : Постоянный
Битрейт : 192 Кбит/сек
Каналы : 2 канала
Расположение каналов : Front: L R
Частота : 48,0 КГц
Битовая глубина : 16 бит
Метод сжатия : С потерями
Размер потока : 158 Мбайт (4%)
Заголовок : Gavrilov Early AC3 2.0 @ 192 kbps
Язык : Russian
Default : Нет
Forced : Нет
Аудио #3
Идентификатор : 4
Формат : AC-3
Формат/Информация : Audio Coding 3
Расширение режима : CM (complete main)
Параметр Endianness формата : Big
Идентификатор кодека : A_AC3
Продолжительность : 1 ч. 55 м.
Вид битрейта : Постоянный
Битрейт : 384 Кбит/сек
Каналы : 6 каналов
Расположение каналов : Front: L C R, Side: L R, LFE
Частота : 48,0 КГц
Битовая глубина : 16 бит
Метод сжатия : С потерями
Размер потока : 316 Мбайт (9%)
Заголовок : Gavrilov Later AC3 5.1 @ 384 kbps
Язык : Russian
Default : Нет
Forced : Нет
Аудио #4
Идентификатор : 5
Формат : AC-3
Формат/Информация : Audio Coding 3
Расширение режима : CM (complete main)
Параметр Endianness формата : Big
Идентификатор кодека : A_AC3
Продолжительность : 1 ч. 55 м.
Вид битрейта : Постоянный
Битрейт : 192 Кбит/сек
Каналы : 2 канала
Расположение каналов : Front: L R
Частота : 48,0 КГц
Битовая глубина : 16 бит
Метод сжатия : С потерями
Размер потока : 158 Мбайт (4%)
Заголовок : Volodarskiy AC3 2.0 @ 192 kbps
Язык : Russian
Default : Нет
Forced : Нет
Текст
Идентификатор : 6
Формат : UTF-8
Идентификатор кодека : S_TEXT/UTF8
Идентификатор кодека/Информация : UTF-8 Plain Text
Язык : Russian
Default : Нет
Forced : Нет
Меню
00:00:00.000 : :South America, 1936
00:03:15.535 : :The Man with the Hat
00:05:43.535 : :The Golden Idol
00:09:49.735 : :Belloq and the Hovitos
00:12:47.869 : :Archeology Lesson
00:15:21.902 : :Special Assignment
00:20:25.403 : :Cautious Guy
00:22:56.237 : :Nepal: the Raven
00:28:48.872 : :Fight for the Medallion
00:33:39.573 : :To Cairo
00:36:20.407 : :The Marketplace
00:40:01.707 : :Basket Chase
00:42:12.874 : :Meeting with Belloq
00:46:37.909 : :Bad Dates
00:49:29.209 : :Tanis Dig
00:50:57.076 : :The Map Room
00:55:07.044 : :Reunited with Marion
00:58:28.912 : :Uncovering the Well of Souls
01:03:01.213 : :Into the Well of Souls
01:08:21.247 : :The Ark Revealed
01:10:20.380 : :Trapped
01:15:27.881 : :The Flying Wing
01:22:18.715 : :Desert Chase
01:25:37.882 : :Dragged Behind
01:29:51.384 : :The Bantu Wind
01:34:24.218 : :Confrontation at Sea
01:37:59.552 : :The Nazis' Secret Island
01:40:59.219 : :Indy's Bluff
01:43:59.887 : :The Ark Ceremony
01:46:54.223 : :The Power of the Ark
01:48:58.723 : :Washington D.C. and End Credits

x264 log

avs [info]: 1056x448p 1:1 @ 24000/1001 fps (cfr)
x264 [info]: using SAR=1/1
x264 [info]: using cpu capabilities: MMX2 SSE2Fast SSSE3 SSE4.2 AVX XOP FMA4 FMA3 LZCNT BMI1
x264 [info]: profile High, level 4.1
x264 [info]: frame I:1252 Avg QP:18.58 size: 74309
x264 [info]: frame P:35830 Avg QP:20.22 size: 31633
x264 [info]: frame B:128666 Avg QP:22.44 size: 11611
x264 [info]: consecutive B-frames: 1.5% 2.3% 7.8% 26.1% 18.7% 31.4% 6.7% 4.6% 0.7% 0.3%
x264 [info]: mb I I16..4: 8.2% 73.0% 18.8%
x264 [info]: mb P I16..4: 0.5% 19.0% 1.9% P16..4: 28.0% 35.1% 13.6% 0.0% 0.0% skip: 1.9%
x264 [info]: mb B I16..4: 0.0% 2.7% 0.2% B16..8: 35.7% 22.3% 4.4% direct: 7.4% skip:27.3% L0:38.4% L1:45.1% BI:16.5%
x264 [info]: 8x8 transform intra:88.3% inter:54.5%
x264 [info]: coded y,uvDC,uvAC intra: 97.1% 81.7% 47.2% inter: 35.1% 21.5% 1.4%
x264 [info]: i16 v,h,dc,p: 12% 8% 26% 54%
x264 [info]: i8 v,h,dc,ddl,ddr,vr,hd,vl,hu: 8% 8% 10% 10% 14% 13% 13% 12% 14%
x264 [info]: i4 v,h,dc,ddl,ddr,vr,hd,vl,hu: 9% 7% 5% 9% 16% 15% 14% 12% 13%
x264 [info]: i8c dc,h,v,p: 38% 27% 19% 17%
x264 [info]: Weighted P-Frames: Y:17.3% UV:12.2%
x264 [info]: ref P L0: 44.3% 13.3% 19.6% 6.8% 5.7% 3.9% 3.7% 2.2% 0.5% 0.0%
x264 [info]: ref B L0: 78.3% 10.9% 4.8% 2.6% 1.9% 1.0% 0.4%
x264 [info]: ref B L1: 94.0% 6.0%
x264 [info]: kb/s:3148.05

Скриншоты

Яндекс.Метрика
Рейтинг@Mail.ru