Махни крылом / Yellowbird (Кристиан Де Вита / Christian De Vita) [2014 г., Мультфильм, Семейный, WEB-DL] DUB [Лицензия]

 

Создавать темы 01-Фев-2015 13:50

-Махни крылом / Yellowbird-- Производство: Франция, Compagnie Cinmatographique, La, Haut et Court, Panache Productions
Режиссер: Кристиан Де Вита / Christian De Vita
Жанр: Мультфильм, Семейный
Год выпуска: 2014 г.
Продолжительность: 01:29:52
Мировая премьера: 11 октября 2014
Российская премьера: 6 ноября 2014, «Наше Кино»
Перевод: Дублированный [Лицензия]
Роли озвучивали: Сет Грин, Иветт Николь Браун, Джим Рэш, Дакота Фаннинг, Кристин Барански, Брэйди Корбет, Артур Дюпон, Сара Форестье, Дэнни Гловер, Захари Гордан, Эллиотт Гулд, Пьер Ришар
Роли дублировали:: Алексей Воробьев, Пелагея Ханова, Вадим Галыгин, Марина Кравец, Алена Бородина,...-Описание: Каждый год, все птицы улетают на юг. Должна улететь и стая нашего юного героя Чижика, но в последний момент перед перелетом на вожака стаи Дариуса нападает злой кот. Только Дариус знает дорогу на юг, и он успевает передать секрет Чижику, который теперь должен стать вожаком стаи. У Чижика нет опыта таких дальних перелетов, и тем более, опыта лидерства в стае, но ему не остается ничего, кроме как быстро учиться.-IMDB КиноПоиск СЭМПЛ
Качество видео: WEB-DL [1080]
Контейнер: MKV
Видео кодек: V_MPEG4/ISO/AVC
Аудио кодек: AC3
Видео: 1920*1080, 4871 Кбит/сек, 24,000 кадра/сек
Аудио: 384 Кбит/сек, 6 каналов, 48,0 КГц
Cубтитры: отсутствуют

Media Info

Общее
Уникальный идентификатор : 211249495978481073337751404393774800961 (0x9EED2C4A004654A5A75738420CE16041)
Полное имя : E:\Фильмы\Махни крылом.mkv
Формат : Matroska
Версия формата : Version 4 / Version 2
Размер файла : 3,37 Гбайт
Продолжительность : 1 ч. 29 м.
Общий поток : 5362 Кбит/сек
Дата кодирования : UTC 2015-01-31 22:13:46
Программа кодирования : mkvmerge v7.1.0 ('Good Love') 64bit built on Jul 27 2014 13:06:55
Библиотека кодирования : libebml v1.3.0 + libmatroska v1.4.1
DURATION : 01:29:52.000000000
NUMBER_OF_FRAMES : 168500
NUMBER_OF_BYTES : 258816000
_STATISTICS_WRITING_APP : mkvmerge v7.1.0 ('Good Love') 64bit built on Jul 27 2014 13:06:55
_STATISTICS_WRITING_DATE_UTC : 2015-01-31 22:13:46
_STATISTICS_TAGS : BPS DURATION NUMBER_OF_FRAMES NUMBER_OF_BYTES
Видео
Идентификатор : 1
Формат : AVC
Формат/Информация : Advanced Video Codec
Профиль формата : [email protected]
Параметр CABAC формата : Да
Параметр ReFrames формата : 4 кадра
Идентификатор кодека : V_MPEG4/ISO/AVC
Продолжительность : 1 ч. 29 м.
Битрейт : 4871 Кбит/сек
Ширина : 1920 пикселей
Высота : 1080 пикселей
Соотношение сторон : 16:9
Режим частоты кадров : Постоянный
Частота кадров : 24,000 кадра/сек
Цветовое пространство : YUV
Субдискретизация насыщенности : 4:2:0
Битовая глубина : 8 бит
Тип развёртки : Прогрессивная
Бит/(Пиксели*Кадры) : 0.098
Размер потока : 3,06 Гбайт (91%)
Заголовок : YELLOW_BIRD_WEBDL_1080p-BLUEBIRD
Язык : English
Default : Да
Forced : Нет
Основные цвета : BT.709
Характеристики трансфера : BT.709
Коэффициенты матрицы : BT.709
colour_range : Limited
Аудио
Идентификатор : 2
Формат : AC-3
Формат/Информация : Audio Coding 3
Расширение режима : CM (complete main)
Параметр Endianness формата : Big
Идентификатор кодека : A_AC3
Продолжительность : 1 ч. 29 м.
Вид битрейта : Постоянный
Битрейт : 384 Кбит/сек
Каналы : 6 каналов
Расположение каналов : Front: L C R, Side: L R, LFE
Частота : 48,0 КГц
Битовая глубина : 16 бит
Метод сжатия : С потерями
Размер потока : 247 Мбайт (7%)
Заголовок : DUB DD 5.1 @ 384 kbps
Язык : Russian
Default : Да
Forced : Нет
Меню
00:00:00.000 : en:1
00:03:27.000 : en:2
00:06:23.000 : en:3
00:10:43.000 : en:4
00:14:30.000 : en:5
00:20:06.000 : en:6
00:26:33.000 : en:7
00:31:02.000 : en:8
00:36:49.000 : en:9
00:42:58.000 : en:10
00:49:07.000 : en:11
00:53:47.000 : en:12
00:58:35.000 : en:13
01:03:11.000 : en:14
01:09:45.000 : en:15
01:14:11.000 : en:16
01:20:40.000 : en:17
Скриншоты
-
Яндекс.Метрика
Рейтинг@Mail.ru