(Pop) VA - Таисия Повалий - Я помолюсь (Новое и лучшее) - 2012, FLAC (image+.cue), lossless

 

Создавать темы 31-Янв-2015 17:35

-Таисия Повалий • Я помолюсь (Новое и лучшее)- Жанр: Pop
Страна:
Год издания диска: 2012
Издатель (лейбл): Artur Music
Аудиокодек: FLAC
Номер по каталогу: CD 538/АМ-КД-411
Тип рипа: image+.cue
Битрейт аудио: lossless
Продолжительность: 78:30
Источник (релизер): 40years
Наличие сканов в содержимом раздачи: да-Треклист:
[03:46] 01. Я помолюсь
[03:26] 02. Солнце Востока
[04:28] 03. Родина
[03:15] 04. Мама-Мамочка
[03:07] 05. Верю тебе
[03:23] 06. Два крыла
[03:33] 07. Знай
[03:33] 08. Наказаны любовью
[03:34] 09. Отпусти (дуэт с С. Михайловым )
[03:17] 10. Бывший
[03:57] 11. Пусть вам повезет в любви
[03:57] 12. Ты далеко ( дуэт с Н. Басковым)
[03:05] 13. За тобой
[03:50] 14. Переживу
[03:31] 15. Ночь - разлучница
[04:14] 16. Отпусти (дуэт с Н. Басковым)
[04:09] 17. Сладкий грех
[04:08] 18. Птица вольная
[03:51] 19. Возвращаю
[04:33] 20. Одолжила
[03:43] 21. Снегом белым (дуэт с Н. Басковым )

Отчёт EAC

Exact Audio Copy V1.0 beta 3 from 29. August 2011
Отчёт EAC об извлечении, выполненном 26. декабря 2012, 19:15
Таисия  Повалий  / Я помолюсь
Дисковод: TSSTcorpCDDVDW TS-L633J   Adapter: 0  ID: 1
Режим чтения                 : Достоверность
Использование точного потока : Да
Отключение кэша аудио        : Да
Использование указателей C2  : Нет
Коррекция смещения при чтении                     : 6
Способность читать области Lead-in и Lead-out     : Нет
Заполнение пропущенных сэмплов тишиной            : Да
Удаление блоков с тишиной в начале и конце        : Нет
При вычислениях CRC использовались нулевые сэмплы : Да
Интерфейс                                         : Встроенный Win32-интерфейс для Win NT/2000
Выходной формат          : Пользовательский кодировщик
Выбранный битрейт        : 1024 kBit/s
Качество                 : Высокий
Добавление ID3-тега      : Нет
Утилита сжатия           : C:\Program Files (x86)\Exact Audio Copy\FLAC\FLAC.EXE
Дополнительные параметры : -8 -V -T "ARTIST=%artist%" -T "TITLE=%title%" -T "ALBUM=%albumtitle%" -T "DATE=%year%" -T "TRACKNUMBER=%tracknr%" -T "GENRE=%genre%" -T "COMMENT=%comment%" -T "BAND=%albuminterpret%" -T "ALBUMARTIST=%albuminterpret%" -T "COMPOSER=%composer%" %haslyrics%--tag-from-file=LYRICS="%lyricsfile%"%haslyrics% -T "DISCNUMBER=%cdnumber%" -T "TOTALDISCS=%totalcds%" -T "TOTALTRACKS=%numtracks%" %hascover%--picture="%coverfile%"%hascover% %source% -o %dest%
TOC извлечённого CD
     Трек |   Старт  | Длительность | Начальный сектор | Конечный сектор
    ---------------------------------------------------------------------
       1  |  0:00.00 |    3:46.22   |           0      |      16971
       2  |  3:46.22 |    3:26.37   |       16972      |      32458
       3  |  7:12.59 |    4:28.69   |       32459      |      52627
       4  | 11:41.53 |    3:15.48   |       52628      |      67300
       5  | 14:57.26 |    3:07.09   |       67301      |      81334
       6  | 18:04.35 |    3:23.61   |       81335      |      96620
       7  | 21:28.21 |    3:33.31   |       96621      |     112626
       8  | 25:01.52 |    3:33.47   |      112627      |     128648
       9  | 28:35.24 |    3:34.29   |      128649      |     144727
      10  | 32:09.53 |    3:17.53   |      144728      |     159555
      11  | 35:27.31 |    3:57.69   |      159556      |     177399
      12  | 39:25.25 |    3:57.27   |      177400      |     195201
      13  | 43:22.52 |    3:05.44   |      195202      |     209120
      14  | 46:28.21 |    3:50.19   |      209121      |     226389
      15  | 50:18.40 |    3:31.08   |      226390      |     242222
      16  | 53:49.48 |    4:14.24   |      242223      |     261296
      17  | 58:03.72 |    4:09.24   |      261297      |     279995
      18  | 62:13.21 |    4:08.07   |      279996      |     298602
      19  | 66:21.28 |    3:51.47   |      298603      |     315974
      20  | 70:13.00 |    4:33.48   |      315975      |     336497
      21  | 74:46.48 |    3:43.62   |      336498      |     353284
Характеристики диапазона извлечения и сообщения об ошибках
Выбранный диапазон
     Имя файла D:\Таисия Повалий  -  Я Помолюсь 2012\Таисия  Повалий  - Я помолюсь.wav
     Пиковый уровень 100.0 %
     Скорость извлечения 3.4 X
     Качество диапазона 100.0 %
     CRC теста C8E021D1
     CRC копии C8E021D1
     Копирование... OK
Ошибок не произошло
AccurateRip: сводка
Трек  1  отсутствует в базе данных
Трек  2  отсутствует в базе данных
Трек  3  отсутствует в базе данных
Трек  4  отсутствует в базе данных
Трек  5  отсутствует в базе данных
Трек  6  отсутствует в базе данных
Трек  7  отсутствует в базе данных
Трек  8  отсутствует в базе данных
Трек  9  отсутствует в базе данных
Трек 10  отсутствует в базе данных
Трек 11  отсутствует в базе данных
Трек 12  отсутствует в базе данных
Трек 13  отсутствует в базе данных
Трек 14  отсутствует в базе данных
Трек 15  отсутствует в базе данных
Трек 16  отсутствует в базе данных
Трек 17  отсутствует в базе данных
Трек 18  отсутствует в базе данных
Трек 19  отсутствует в базе данных
Трек 20  отсутствует в базе данных
Трек 21  отсутствует в базе данных
Ни одного трека нет в базе AccurateRip
Конец отчёта
==== Контрольная сумма отчёта 830FBA372FDA21EB51606F5CC1EFC5F716AFAB0443EDEE480F466F3A66CB36ED ====
-
Яндекс.Метрика
Рейтинг@Mail.ru