[ Сегодня на трекере фрилич! Идет свободное скачивание без начисления Download ]

Ход конем (1962) DVDRip [H.264]

 

Создавать темы 31-Янв-2015 17:17

-Ход конем (1962) DVDRip [H.264]- Производство: СССР, Мосфильм
Жанр: Комедия
Режиссер: Татьяна Лукашевич
Актёры: Борис Кузнецов, Савелий Крамаров, Афанасий Кочетков, Михаил Пуговкин, Анатолий Папанов, Татьяна Пельтцер, Виктор Хохряков, Юрий Белов
Описание фильма:
Пятнадцатилетний Алешка Левшин, мечтающий стать таким же классным трактористом, как передовик Шугай, из-за возраста не допускается к работам в колхозе, где он намерен прожить всю жизнь. Но у него есть взрослый друг - прицепщик Колька Лопатин, который давно мечтает о беззаботной городской жизни.
Лешка идет на безобидную хитрость - и по документам друга поступает в училище механизаторов, а Колька едет в город к Лешкиному дяде…

Мировая премьера: 25 марта 1963
Релиз на DVD: 11 декабря 2008, «Мастер Тэйп»
Возрастное ограничение: 12+
Релиз от: denver7979
Продолжительность: 01:17:51
Качество видео: DVDRip [H.264]
Вид субтитров: Отсутствуют
Видео: AVC, 720x536 (4:3), 25.000 fps, 2 330 Kbps (0.242 bit/pixel)
Аудио: AC-3, 48.0 KHz, 2 ch, 192 Kbps, CBR

Mediainfo:

Видео
Идентификатор                            : 1
Формат                                   : AVC
Формат/Информация                        : Advanced Video Codec
Профиль формата                          : [url=mailto:[email protected]][email protected][/url]
Параметр CABAC формата                   : Да
Параметр ReFrames формата                : 6 кадров
Идентификатор кодека                     : V_MPEG4/ISO/AVC
Продолжительность                        : 1 ч. 17 м.
Битрейт                                  : 2330 Кбит/сек
Ширина                                   : 720 пикселей
Высота                                   : 536 пикселей
Соотношение сторон                       : 4:3
Режим частоты кадров                     : Постоянный
Частота кадров                           : 25,000 кадров/сек
Цветовое пространство                    : YUV
Субдискретизация насыщенности            : 4:2:0
Битовая глубина                          : 8 бит
Тип развёртки                            : Прогрессивная
Бит/(Пиксели*Кадры)                      : 0.242
Размер потока                            : 1,24 Гбайт (90%)
Библиотека кодирования                   : x264 core 130 r2273 b3065e6
Настройки программы                      : cabac=1 / ref=6 / deblock=1:1:1 / analyse=0x1:0x111 / me=dia / subme=7 / psy=1 / psy_rd=0.40:0.00 / mixed_ref=1 / me_range=16 / chroma_me=1 / trellis=1 / 8x8dct=0 / cqm=0 / deadzone=21,11 / fast_pskip=1 / chroma_qp_offset=-2 / threads=3 / lookahead_threads=1 / sliced_threads=0 / nr=0 / decimate=1 / interlaced=0 / bluray_compat=0 / constrained_intra=0 / bframes=5 / b_pyramid=2 / b_adapt=2 / b_bias=0 / direct=1 / weightb=1 / open_gop=0 / weightp=2 / keyint=250 / keyint_min=25 / scenecut=40 / intra_refresh=0 / rc_lookahead=40 / rc=2pass / mbtree=1 / bitrate=2330 / ratetol=1.0 / qcomp=0.60 / qpmin=0 / qpmax=69 / qpstep=4 / cplxblur=20.0 / qblur=0.5 / ip_ratio=1.40 / aq=1:0.60
Default                                  : Да
Forced                                   : Нет
Аудио
Идентификатор                            : 2
Формат                                   : AC-3
Формат/Информация                        : Audio Coding 3
Расширение режима                        : CM (complete main)
Параметр Endianness формата              : Big
Идентификатор кодека                     : A_AC3
Продолжительность                        : 1 ч. 17 м.
Вид битрейта                             : Постоянный
Битрейт                                  : 192 Кбит/сек
Каналы                                   : 2 канала
Расположение каналов                     : Front: L R
Частота                                  : 48,0 КГц
Битовая глубина                          : 16 бит
Метод сжатия                             : С потерями
Размер потока                            : 107 Мбайт (8%)
Default                                  : Да
Forced                                   : Нет

Знаете ли Вы, что:

Фильм снят по мотивам повести Михаила Жестева «Приключения маленького тракториста».
-Скриншоты:
-
Яндекс.Метрика
Рейтинг@Mail.ru