Заложница 3 / Taken 3 (Оливье Мегатон / Olivier Megaton) [2014 г., боевик, триллер, HDTVRip] Dub (Line)

 

Создавать темы 30-Янв-2015 16:38

-Заложница 3 / Taken 3-- Производство: Франция / Canal+ [fr], Cine, EuropaCorp, M6 Films
Год выпуска: 2014 г.
Жанр: боевик, триллер
Продолжительность: 01:44:03
Мировая премьера: 16 декабря 2014
Российская премьера: 15 января 2015, «Двадцатый Век Фокс СНГ»
Перевод: Профессиональный (полное дублирование) [Чистый звук]
Режиссер: Оливье Мегатон / Olivier Megaton-В ролях: Лиам Нисон, Мэгги Грэйс, Форест Уитакер, Фамке Янссен, Джонни Уэстон, Дюгрей Скотт, Джон Грайз, Лиленд Орсер, Ал Сапиенца, Эндрю Ховард-Описание: Жизнь бывшего правительственного агента Брайана Миллса рушится, когда его обвиняют в убийстве, которого он не совершал. Преследуемый опытным инспектором полиции, Миллс пытается отследить настоящего убийцу…-Качество видео: HDTVRip
Контейнер: AVI
Видео кодек: XviD
Аудио кодек: AC3
Видео: 720x304 (2.37:1), 25 fps, XviD build 50 ~1742 kbps avg, 0.32 bit/pixel
Аудио: 48 kHz, AC3 Dolby Digital, 2/0 (L,R) ch, ~128.00 kbps avg
Cубтитры: отсутствуют

Media Info

General
Complete name : W:\Zalozhnica.2014.D.HDTVRip.1400MB.avi
Format : AVI
Format/Info : Audio Video Interleave
File size : 1.37 GiB
Duration : 1h 44mn
Overall bit rate : 1 880 Kbps
Writing application : VirtualDubMod 1.5.10.2 (build 2540/release)
Video
ID : 0
Format : MPEG-4 Visual
Format profile : Advanced [email protected]
Format settings, BVOP : Yes
Format settings, QPel : No
Format settings, GMC : No warppoints
Format settings, Matrix : Default (MPEG)
Codec ID : XVID
Codec ID/Hint : XviD
Duration : 1h 44mn
Bit rate : 1 743 Kbps
Width : 720 pixels
Height : 304 pixels
Display aspect ratio : 2.35:1
Frame rate : 25.000 fps
Color space : YUV
Chroma subsampling : 4:2:0
Bit depth : 8 bits
Scan type : Progressive
Bits/(Pixel*Frame) : 0.318
Stream size : 1.27 GiB (93%)
Writing library : XviD 1.2.1 (UTC 2008-12-04)
Audio
ID : 1
Format : AC-3
Format/Info : Audio Coding 3
Mode extension : CM (complete main)
Codec ID : 2000
Duration : 1h 44mn
Bit rate mode : Constant
Bit rate : 128 Kbps
Channel(s) : 2 channels
Channel positions : Front: L R
Sampling rate : 48.0 KHz
Bit depth : 16 bits
Stream size : 95.2 MiB (7%)
Alignment : Split accross interleaves
Interleave, duration : 40 ms (1.00 video frame)
Interleave, preload duration : 500 ms

Скриншоты

Яндекс.Метрика
Рейтинг@Mail.ru