[ Сегодня на трекере фрилич! Идет свободное скачивание без начисления Download ]

NG. Взгляд изнутри: Вторая мировая война / Inside World War II (Алекс Флестер, Патрик Бреннен)[2012.,Документальный, история] DVDRip

 

Создавать темы 21-Ноя-2013 09:13

NG. Взгляд изнутри: Вторая мировая война / Inside World War II- Автор рипа: alf62
Режиссер / Телекомпания: Алекс Флестер, Патрик Бреннен / Towers Productions Inc., National Geographic
Страна: США
Год выпуска: 2012
Жанр: Документальный, история
Описание: Новый фильм от National Geographic посвящен Второй мировой войне. Ветераны Второй Мировой рассказывают историю войны, как они ее видели. Они никогда не забудут ужасы этой войны.
Рассказ о периоде с сентября 1933 года, когда Гитлер выступил с обращением к нацистской партии в Нюрнберге и до бомбардировки Нагасаки. Фильм включает в себя следующие эпизоды: предвоенное время в мире, аншлюс Австрии, захват Чехословакии, война с Польшей, Францией, битва за Британию, операция "Барбаросса", Перл-Харбор и битва за Мидуэй, бои в Северной Африке, Сталинград, Гуадалканальскую кампанию, высадку союзников во Франции, падение Берлина, разгром Японии.
Продолжительность: 02:14:41
Перевод: Одноголосный закадровый (профессиональный)
Видеокодек: DivX
Битрейт видео: ~1 880 Кбит/с
Размер кадра: 720 x 400
Качество видео: DVDRip
Аудио: AC3, 2.0 ch, 192 Кбит/с

MediaInfo

General
Complete name : D:\TORRENTS\!!! РЕЛИЗЫ\Inside.WWII.2012.DVDRip.avi
Format : AVI
Format/Info : Audio Video Interleave
File size : 1.96 GiB
Duration : 2h 14mn
Overall bit rate : 2 078 Kbps
Writing application : VirtualDubMod 1.5.10.3 | www.virtualdub-fr.org || (build 2550/release)
Writing library : VirtualDubMod build 2550/release
Video
ID : 0
Format : MPEG-4 Visual
Format profile : Advanced [email protected]
Format settings, BVOP : 2
Format settings, QPel : No
Format settings, GMC : No warppoints
Format settings, Matrix : Default (MPEG)
Codec ID : DX50
Codec ID/Hint : DivX 5
Duration : 2h 14mn
Bit rate : 1 874 Kbps
Width : 720 pixels
Height : 400 pixels
Display aspect ratio : 16:9
Frame rate : 29.970 fps
Color space : YUV
Chroma subsampling : 4:2:0
Bit depth : 8 bits
Scan type : Progressive
Compression mode : Lossy
Bits/(Pixel*Frame) : 0.217
Stream size : 1.76 GiB (90%)
Writing library : XviD 73
Audio
ID : 1
Format : AC-3
Format/Info : Audio Coding 3
Mode extension : CM (complete main)
Format settings, Endianness : Big
Codec ID : 2000
Duration : 2h 14mn
Bit rate mode : Constant
Bit rate : 192 Kbps
Channel(s) : 2 channels
Channel positions : Front: L R
Sampling rate : 48.0 KHz
Bit depth : 16 bits
Compression mode : Lossy
Stream size : 185 MiB (9%)
Alignment : Split accross interleaves
Interleave, duration : 33 ms (1.00 video frame)
Interleave, preload duration : 500 ms
Скриншоты:
-Пожалуйста, не уходите с раздачи - помогите докачать другим. Если понравился релиз - жмите кнопку "Спасибо"!
---Релиз от: ---

Создавать темы 21-Ноя-2013 10:01 (спустя 48 минут)

Яндекс.Метрика
Рейтинг@Mail.ru