Ангар 10 / Hangar 10 (Дэниэл Симпсон / Daniel Simpson) [2014 г., ужасы, фантастика, триллер, WEB-DLRip] VO (ХиХиДок) + Original (Eng)

 

Создавать темы 30-Янв-2015 16:27

-Ангар 10 / Hangar 10-- Производство: Великобритания, Bigscope Films, Newscope Films
Год выпуска: 2014 г.
Жанр: ужасы, фантастика, триллер
Продолжительность: 01:27:3
Мировая премьера: 22 октября 2014
Перевод: Любительский (одноголосый, закадровый) [ХиХиДок]
Оригинальный аудиопоток: английский
Режиссер: Дэниэл Симпсон / Daniel Simpson-В ролях: Роберт Кертис, Эбби Солт, Дэнни Шейлер-Описание: Через 33 года после печально известного инцидента с НЛО в Рендлшем Форест, трое энтузиастов отправляются на поиски золота в ту же область…-Качество видео: WEB-DLRip
Контейнер: AVI
Видео кодек: XviD
Аудио кодек: AC3
Видео: 1624 Кбит/сек, 720x384, 1,85:1, 23,976 кадра/сек, 0.245 Бит/(Пиксели*Кадры)
Аудио №1: 384 Кбит/сек, CBR, 6 каналов, 48,0 КГц (Русский)
Аудио №2: 384 Кбит/сек, CBR, 6 каналов, 48,0 КГц (Английский)
Cубтитры: отсутствуют

Рецензия

Ведьма из ангара.Я пересмотрел очень много мокьюментари, фактически, я видел все фильмы этого жанра, ибо вот такой у меня фетиш — смотреть на приключения ручной камеры во всяких лесах, пещерах и еще бог весть где. И насчет жанра я понял одно — псевдодокументалки могут быть либо интересными, либо неимоверно скучными, фильмов находящихся посередине этой градации я почти не видел. В основном это из-за того, что молодые режиссеры видят в ручной камере способ избежать финансовых проблем, ну а чего — наснимал разного дерьма трясущейся конечностью, смонтировал кое-как, да и вывалил на прилавки магазинов, налепив на коробку надпись «ЗАСЕКРЕЧЕНО». И денег особо тратить не надо и таланта великого не требуется — на все дыры в сюжете и нелогичное поведение героев всегда можно заявить «А это все как в жизни, отвянь». Меня, как фаната жанра такой подход весьма огорчает, и от огорчения я начинаю называть такие фильмы нехорошими словами и сжигать их посередине квартиры на ритуальном костре. И «Ангар 10» заслужил там место самой своей завязкой, предполагающей, что мы до сих пор не объелись ходьбой кучки идиотов по лесу, и их истериками. На самом деле подобный сюжет заколебал всех сразу после выхода «Ведьмы из Блэр» вот только режиссеру данного фильма об этом никто сказать не решился, возможно потому, что у него был пистолет и страшная черная маска, с помощью которых он и заставил людей с улицы ехать в лес и разыгрывать там клоунаду с беготней от дискотечных шаров.
В конце концов, у «Ангара 10» наблюдается настолько дичайшая нехватка хоть каких-нибудь идей для продвижения сюжета, что он просто последние соки из баек про инопланетян и секретные военные базы в лесах выжимает. Ничего другого у фильма попросту нет, только переливающиеся всеми цветами радуги фонарики, обозначающие то ли инопланетные зонды, то ли самих инопланетян да попытки втиснуть в сюжет военных, ни одного из которых вы так и не увидите за весь фильм, из-за чего они кажутся еще более мифическими существами, чем пришельцы. Все остальное время… вы сами знаете, что там происходит, особым гением для этого быть не нужно. Надеюсь у вас крепкий вестибулярный аппарат и железные нервы, потому что в ином случае вы просто разобьете свой телевизор ручной камерой и сожжете с помощью канистры бензина какой-нибудь лес, вместе со всеми найденными пленками, что там есть. Если персонажи первую половину фильма просто идут по лесополосе и снимают всякое, то во второй половине они будут это делать с визгами, воплями и скандалами по любому поводу. Поведение героев, кстати, выглядит, во-первых, странно, во-вторых, тупо, я не понял, по какой причине они после наблюдения шоу фейерверков в хмурых осенних небесах превратились в капризных и безмозглых истериков, нам просто не показали перехода из одного агрегатного состояния в другое, будто даже военные, которые нашли эту пленку, посчитали эту часть слишком унылой для документальной хроники, и вырезали ее к чертям. В любом случае, практически весь фильм на экране постоянно будут деревья и светящиеся шарики, и ни одной цифры 10 или ангара поблизости. Попадают в него герои буквально в последние пять минут и прочти сразу оттуда выбегают, из-за чего непонятно по какой причине этот ангар вывели в название фильма. Это все равно, что если бы «Монстро» назвали «Подземка» потому что герои туда спускаются в середине. И да, я докапываюсь до названия, просто этот фильм такой пустой и безыдейный что я готов даже финальные титры пообсуждать, ей богу.
Это кино плохое. Очень скучное, некрасивое, блеклое, заунывное и раздражающее. В нем нет ничего, что могло бы стать причиной для просмотра. «Ангар 10» появился на свет только потому что у режиссера не было денег на нормальный фильм, он снят и смонтирован на коленке, безо всякого старания. Бесящие, неприятные герои и абсолютно такой же сюжет, эта пленка абсолютно не заслуживала быть найденной. Лучше бы она так и лежала под камнем разрушенной военной базы вместе со своими хозяевами.2 из 10

Media Info

Общее
Уникальный идентификатор                 : 212497316763373443478726539703843794831 (0x9FDD7E9A8B3A004C80BFF971BB6BAF8F)
Полное имя                               : D:\movies\Hangar.10.2014.WEB-DLRip.avi
Формат                                   : Matroska
Версия формата                           : Version 2
Размер файла                             : 1,49 Гбайт
Продолжительность                        : 1 ч. 27 м.
Общий поток                              : 2441 Кбит/сек
Дата кодирования                         : UTC 2015-01-22 21:06:14
Программа кодирования                    : mkvmerge v5.0.1 ('Es ist Sommer') built on Oct 24 2011 19:45:06
Библиотека кодирования                   : libebml v1.2.2 + libmatroska v1.3.0
Видео
Идентификатор                            : 1
Формат                                   : MPEG-4 Visual
Профиль формата                          : Advanced [email protected]
Параметр BVOP формата                    : 2
Параметр QPel формата                    : Нет
Параметр GMC формата                     : Без точки перехода
Параметр матрицы формата                 : Default (H.263)
Режим смешивания                         : Сжатый битовый поток
Идентификатор кодека                     : V_MS/VFW/FOURCC / XVID
Идентификатор кодека/Подсказка           : XviD
Продолжительность                        : 1 ч. 27 м.
Битрейт                                  : 1624 Кбит/сек
Ширина                                   : 720 пикселей
Высота                                   : 384 пикселя
Соотношение сторон                       : 1,85:1
Режим частоты кадров                     : Постоянный
Частота кадров                           : 23,976 кадра/сек
Цветовое пространство                    : YUV
Субдискретизация насыщенности            : 4:2:0
Битовая глубина                          : 8 бит
Тип развёртки                            : Прогрессивная
Метод сжатия                             : С потерями
Бит/(Пиксели*Кадры)                      : 0.245
Размер потока                            : 1018 Мбайт (67%)
Библиотека кодирования                   : XviD 64
Default                                  : Да
Forced                                   : Нет
Аудио #1
Идентификатор                            : 2
Формат                                   : AC-3
Формат/Информация                        : Audio Coding 3
Расширение режима                        : CM (complete main)
Параметр Endianness формата              : Big
Режим смешивания                         : Header stripping
Идентификатор кодека                     : A_AC3
Продолжительность                        : 1 ч. 27 м.
Вид битрейта                             : Постоянный
Битрейт                                  : 384 Кбит/сек
Каналы                                   : 6 каналов
Расположение каналов                     : Front: L C R, Side: L R, LFE
Частота                                  : 48,0 КГц
Битовая глубина                          : 16 бит
Метод сжатия                             : С потерями
Размер потока                            : 241 Мбайт (16%)
Default                                  : Да
Forced                                   : Нет
Аудио #2
Идентификатор                            : 3
Формат                                   : AC-3
Формат/Информация                        : Audio Coding 3
Расширение режима                        : CM (complete main)
Параметр Endianness формата              : Big
Режим смешивания                         : Header stripping
Идентификатор кодека                     : A_AC3
Продолжительность                        : 1 ч. 27 м.
Вид битрейта                             : Постоянный
Битрейт                                  : 384 Кбит/сек
Каналы                                   : 6 каналов
Расположение каналов                     : Front: L C R, Side: L R, LFE
Частота                                  : 48,0 КГц
Битовая глубина                          : 16 бит
Метод сжатия                             : С потерями
Размер потока                            : 241 Мбайт (16%)
Default                                  : Нет
Forced                                   : Нет

Скриншот c названием фильма

Скриншоты

Яндекс.Метрика
Рейтинг@Mail.ru