Господин Никто / Mr. Nobody [Расширенная версия] (Жако Ван Дормель / Jaco Van Dormael) [2009 г., фантастика, фэнтези, драма, мелодрама, BDRip-AVC] MVO (Лицензия) + Original (Eng) + Sub (Rus, Eng)

 

Создавать темы 30-Янв-2015 16:26

-Господин Никто / Mr. Nobody-Расширенная версия-«Всё возможно, пока не сделан выбор»- Производство: Германия, Канада, Франция, Бельгия, ARD Degeto Film GmbH, Caviar Films, Christal Films, Ciné Cinémas, Climax Films
Год выпуска: 2009 г.
Жанр: фантастика, фэнтези, драма, мелодрама
Продолжительность: 02:35:36
Мировая премьера: 12 сентября 2009
Российская премьера: 15 апреля 2010, «Премиум Фильм»
Дата выхода DVD: 10 июня 2010, «CP-Digital»
Дата выхода Blu-Ray: 27 января 2011, «CP-Digital»
Перевод: Профессиональный (многоголосый, закадровый) [Лицензия]
Оригинальный аудиопоток: английский-Режиссер: Жако Ван Дормель / Jaco Van Dormael
В ролях: Джаред Лето, Дайан Крюгер, Сара Полли, Лин Дэн Пэм, Рис Иванс, Тоби Регбо, Джуно Темпл, Клер Стоун, Томас Бирн, Одри Джакомини, Кьяра Казелли-Описание: Проснувшийся немощным стариком Немо Никто оказывается последним смертным в гротескном будущем. Все люди уже давно бессмертны и с удовольствием наблюдают за телешоу, где главная звезда — дряхлый и безумный старик Немо, доживающий свои последние дни. Накануне конца к нему приходит журналист, и Немо рассказывает ему свою историю перескакивая из одной жизни в другую, параллельную, несколько раз за рассказ успев умереть.-Качество видео: BDRip-AVC
Контейнер: MKV
Видео кодек: MPEG4 AVC
Аудио кодек: AC3
Видео: 1024x440 (2.35:1), 24.000 fps, MPEG4 AVC ~2 332 kbps avg, 0.216 bit/pixel
Аудио: 48 kHz, AC3 Dolby Digital, 3/2 (L,C,R,l,r) + LFE ch, ~448 kbps - Rus
Аудио #2: 48 kHz, AC3 Dolby Digital, 3/2 (L,C,R,l,r) + LFE ch, ~448 kbps - Eng
Cубтитры: Русские, английские

Log x264

x264 [info]: frame I:1573 Avg QP:15.51 size: 61212
x264 [info]: frame P:53221 Avg QP:18.06 size: 23566
x264 [info]: frame B:169271 Avg QP:19.38 size: 8100

Media Info

General
Unique ID : 179782961288444037196897120452428857143 (0x8740F0595D746678B156533031727F37)
Complete name : C:\Users\Ivan\Desktop\Mr.Nobody.2009.BDRip-AVC.mkv
Format : Matroska
Format version : Version 4 / Version 2
File size : 3.51 GiB
Duration : 2h 35mn
Overall bit rate : 3 230 Kbps
Movie name : Rip by LPPI
Encoded date : UTC 2015-01-30 11:49:02
Writing application : mkvmerge v7.5.0 ('Glass Culture') 64bit built on Jan 4 2015 16:48:44
Writing library : libebml v1.3.1 + libmatroska v1.4.2
DURATION : 02:26:44.569000000
NUMBER_OF_FRAMES : 1196
NUMBER_OF_BYTES : 61407
_STATISTICS_WRITING_APP : mkvmerge v7.5.0 ('Glass Culture') 64bit built on Jan 4 2015 16:48:44
_STATISTICS_WRITING_DATE_UT : 2015-01-30 11:49:02
_STATISTICS_TAGS : BPS DURATION NUMBER_OF_FRAMES NUMBER_OF_BYTES
Video
ID : 1
Format : AVC
Format/Info : Advanced Video Codec
Format profile : [email protected]
Format settings, CABAC : Yes
Format settings, ReFrames : 7 frames
Codec ID : V_MPEG4/ISO/AVC
Duration : 2h 35mn
Bit rate : 2 332 Kbps
Width : 1 024 pixels
Height : 440 pixels
Display aspect ratio : 2.35:1
Frame rate mode : Constant
Frame rate : 24.000 fps
Color space : YUV
Chroma subsampling : 4:2:0
Bit depth : 8 bits
Scan type : Progressive
Bits/(Pixel*Frame) : 0.216
Stream size : 2.47 GiB (70%)
Title : Господин Никто / Mr. Nobody
Writing library : x264 core 130 r2273 b3065e6
Encoding settings : cabac=1 / ref=7 / deblock=1:-3:-3 / analyse=0x3:0x133 / me=umh / subme=11 / psy=1 / psy_rd=1.00:0.15 / mixed_ref=0 / me_range=48 / chroma_me=1 / trellis=2 / 8x8dct=1 / cqm=0 / deadzone=21,11 / fast_pskip=0 / chroma_qp_offset=-3 / threads=12 / lookahead_threads=2 / sliced_threads=0 / nr=0 / decimate=0 / interlaced=0 / bluray_compat=0 / constrained_intra=0 / bframes=8 / b_pyramid=2 / b_adapt=2 / b_bias=0 / direct=3 / weightb=1 / open_gop=0 / weightp=2 / keyint=250 / keyint_min=23 / scenecut=40 / intra_refresh=0 / rc=2pass / mbtree=0 / bitrate=2332 / ratetol=1.0 / qcomp=0.60 / qpmin=0 / qpmax=69 / qpstep=4 / cplxblur=20.0 / qblur=0.5 / ip_ratio=1.40 / pb_ratio=1.30 / aq=1:1.00
Language : English
Default : Yes
Forced : No
DURATION : 02:35:36.049000000
NUMBER_OF_FRAMES : 224065
NUMBER_OF_BYTES : 2721600661
_STATISTICS_WRITING_APP : mkvmerge v7.5.0 ('Glass Culture') 64bit built on Jan 4 2015 16:48:44
_STATISTICS_WRITING_DATE_UT : 2015-01-30 11:49:02
_STATISTICS_TAGS : BPS DURATION NUMBER_OF_FRAMES NUMBER_OF_BYTES
Audio #1
ID : 2
Format : AC-3
Format/Info : Audio Coding 3
Mode extension : CM (complete main)
Format settings, Endianness : Big
Codec ID : A_AC3
Duration : 2h 35mn
Bit rate mode : Constant
Bit rate : 448 Kbps
Channel(s) : 6 channels
Channel positions : Front: L C R, Side: L R, LFE
Sampling rate : 48.0 KHz
Bit depth : 16 bits
Compression mode : Lossy
Stream size : 499 MiB (14%)
Title : MVO (Лицензия)
Language : Russian
Default : Yes
Forced : No
Audio #2
ID : 3
Format : AC-3
Format/Info : Audio Coding 3
Mode extension : CM (complete main)
Format settings, Endianness : Big
Codec ID : A_AC3
Duration : 2h 35mn
Bit rate mode : Constant
Bit rate : 448 Kbps
Channel(s) : 6 channels
Channel positions : Front: L C R, Side: L R, LFE
Sampling rate : 48.0 KHz
Bit depth : 16 bits
Compression mode : Lossy
Stream size : 499 MiB (14%)
Title : Original
Language : English
Default : No
Forced : No
Text #1
ID : 4
Format : UTF-8
Codec ID : S_TEXT/UTF8
Codec ID/Info : UTF-8 Plain Text
Title : Forced
Language : Russian
Default : Yes
Forced : No
Text #2
ID : 5
Format : UTF-8
Codec ID : S_TEXT/UTF8
Codec ID/Info : UTF-8 Plain Text
Title : Full
Language : Russian
Default : No
Forced : No
Text #3
ID : 6
Format : UTF-8
Codec ID : S_TEXT/UTF8
Codec ID/Info : UTF-8 Plain Text
Title : Full
Language : English
Default : No
Forced : No
Menu
00:00:00.000 : en:
00:12:09.791 : en:
00:20:46.250 : en:
00:30:49.958 : en:
00:40:18.416 : en:
00:49:55.500 : en:
01:01:53.000 : en:
01:13:34.500 : en:
01:22:29.625 : en:
01:32:50.333 : en:
01:42:24.291 : en:
01:52:39.833 : en:
02:02:53.333 : en:
02:10:27.166 : en:
02:19:22.958 : en:
02:29:09.291 : en:

Скриншоты

Яндекс.Метрика
Рейтинг@Mail.ru