[ Сегодня на трекере фрилич! Идет свободное скачивание без начисления Download ]

Алтарь / Altar (Ник Уиллинг / Nick Willing) [2014 г., ужасы, детектив, WEB-DLRip] DVO (МЕГАПЫХАРЬ и Элис)

 

Создавать темы 30-Янв-2015 16:24

-Алтарь / Altar-- Производство: Великобритания / Great Point Media, Pygmalion Productions
Год выпуска: 2014 г.
Жанр: ужасы, детектив
Продолжительность: 01:27:15
Мировая премьера: 27 декабря 2014
Перевод: Любительский (двухголосый, закадровый) [МЕГАПЫХАРЬ и Элис]
Режиссер: Ник Уиллинг / Nick Willing-В ролях: Ребекка Калдер, Стефен Чэнс, Антония Кларк, Ричард Диллэйн, Джонатан Джейнс, Мэттью Модайн, Стив Орам, Дэвид Дж. Пил, Оливия Уильямс, Адам Томас Райт-Описание: В дом, купленный американским банкиром, приезжает дизайнер со всей своей семьёй, с заданием привести его в исходное состояние. Но им было не известно, что дом был заброшен не просто так…-Качество видео: WEB-DLRip
Контейнер: AVI
Видео кодек: XviD
Аудио кодек: AC3
Видео: 2014 Кбит/сек, 720х384, 1,85:1, 25,000 кадров/сек, 0,291 Бит/(Пиксели*Кадры)
Аудио: 224 Кбит/сек, 2 канала, 48,0 КГц
Cубтитры: отсутствуют

Рецензия

«Алтарь» (Altar) — неплохо поставленный мистический триллер от британского режиссера Ника Уиллинга, режиссера не слишком известного, но имеющего в активе парочку вполне смотрибельных фильмов (сразу вспомнилась «Смерть на реке» — уютный в плане вечернего просмотра с семьей, неторопливый детектив).
«Алтарь» или «Призрак дома Редклифф», имеет в основе сценария классическую историю о доме с приведением, обыгранную с английской выразительностью и сдержанностью. Женщина дизайнер — архитектор с семьей приезжает для работы в уединенное поместье Редклифф. Особняк находится в плачевном состоянии. По заданию нового владельца поместья, здание необходимо восстановить и привести в первоначальный вид. Вскоре выясняется, что с домом связана какая-то темная история и с ним явно что-то не так…
С первых кадров фильм Уиллинга странным образом располагает к себе. Сюжет не таит каких-то особых секретов, и по-настоящему страшным и захватывающим это кино не назовешь (жутких моментов раз-два и обчелся). Но стилистически выдержанный, снятый в приглушенных тонах, с «живыми» декорациями в викторианском стиле делают это кино добротным и аккуратным. К тому же характеры и образы героев очень достоверны. Естественность их поведения, отсутствие пустых диалогов — безусловный плюс. Даже одежда, эти вязаные шапочки и растянутые свитера главной героине в исполнении Оливия Уильямс — точное попадание в яблочко, — именно так выглядит настоящий художник, в нашем случае архитектор.
Несомненно «Алтарь» кино на любителя. Многим оно покажется скучноватым и недостаточно жестким в плане ужасов, но поверьте, на фоне бесконечного трэша и примитива, подобная мистика выглядит чуть ли не шедевром.

Media Info

Общее
Полное имя                               : D:\movies\Altar (2014) WEB-DLRip.avi
Формат                                   : AVI
Формат/Информация                        : Audio Video Interleave
Профиль формата                          : OpenDML
Настройки формата                        : rec
Размер файла                             : 1,37 Гбайт
Продолжительность                        : 1 ч. 27 м.
Общий поток                              : 2244 Кбит/сек
Программа кодирования                    : AVI-Mux GUI 1.17.8.3, Feb 16 201019:42:50
Видео
Идентификатор                            : 0
Формат                                   : MPEG-4 Visual
Профиль формата                          : Advanced [email protected]
Параметр BVOP формата                    : Нет
Параметр QPel формата                    : Нет
Параметр GMC формата                     : 3 точки перехода
Параметр матрицы формата                 : Default (MPEG)
Идентификатор кодека                     : XVID
Идентификатор кодека/Подсказка           : XviD
Продолжительность                        : 1 ч. 27 м.
Битрейт                                  : 2014 Кбит/сек
Ширина                                   : 720 пикселей
Высота                                   : 384 пикселя
Соотношение сторон                       : 1,85:1
Частота кадров                           : 25,000 кадров/сек
Цветовое пространство                    : YUV
Субдискретизация насыщенности            : 4:2:0
Битовая глубина                          : 8 бит
Тип развёртки                            : Прогрессивная
Метод сжатия                             : С потерями
Бит/(Пиксели*Кадры)                      : 0.291
Размер потока                            : 1,23 Гбайт (90%)
Библиотека кодирования                   : XviD 62
Аудио
Идентификатор                            : 1
Формат                                   : AC-3
Формат/Информация                        : Audio Coding 3
Расширение режима                        : CM (complete main)
Параметр Endianness формата              : Big
Идентификатор кодека                     : 2000
Продолжительность                        : 1 ч. 27 м.
Вид битрейта                             : Постоянный
Битрейт                                  : 224 Кбит/сек
Каналы                                   : 2 канала
Расположение каналов                     : Front: L R
Частота                                  : 48,0 КГц
Битовая глубина                          : 16 бит
Метод сжатия                             : С потерями
Размер потока                            : 140 Мбайт (10%)
Выравнивание                             : Соединение по промежуткам
Продолжительность промежутка             : 64  мс. (1,60 видеокадра)
Время предзагрузки промежутка            : 192  мс.
Заголовок                                : Алтарь  Altar (2014)

Скриншоты

Яндекс.Метрика
Рейтинг@Mail.ru