[ Сегодня на трекере фрилич! Идет свободное скачивание без начисления Download ]

(Pop) Игорёк - Superstars - 2013, FLAC (image+.cue), lossless

 

Создавать темы 28-Янв-2015 13:10

-Игорёк - Superstars- Жанр: Pop
Носитель: CD
Страна-производитель диска (релиза): Россия
Год издания: 2013
Издатель (лейбл): "Квадро-Диск"
Номер по каталогу: KTL13-885
Аудиокодек: FLAC (*.flac)
Тип рипа: image+.cue
Битрейт аудио: lossless
Продолжительность: 01:13:52
Источник (релизер): rmb_rmb собственный диск
Наличие сканов в содержимом раздачи: да, полный комплект-Треклист:
01. Подождём
02. О женском одиночестве
03. Как всегда
04. Автосервис
05. Держаться нету больше сил (2003 версия)
06. Кричи-кричи
07. Ну и что (club mix)
08. Baby,i love you
09. Give it to me
10. Бросай бухать
11. Девочка Марина
12. Доигрался
13. Как мне жить
14. Какая
15. Красивая девчонка
16. Майорка
17. Ночные огоньки (диско версия)
18. Сказка
19. Удержаться не могу
20. Хей, ребята
21. Грачи (Игорёк & Энди)-

Отчёт EAC

Exact Audio Copy V1.0 beta 3 from 29. August 2011
Отчёт EAC об извлечении, выполненном 26. января 2015, 21:11
Игорек / Superstars
Дисковод: PIONEER DVD-RW  DVR-221L   Adapter: 1  ID: 1
Режим чтения                 : Достоверность
Использование точного потока : Да
Отключение кэша аудио        : Да
Использование указателей C2  : Нет
Коррекция смещения при чтении                     : 6
Способность читать области Lead-in и Lead-out     : Нет
Заполнение пропущенных сэмплов тишиной            : Да
Удаление блоков с тишиной в начале и конце        : Нет
При вычислениях CRC использовались нулевые сэмплы : Да
Интерфейс                                         : Встроенный Win32-интерфейс для Win NT/2000
Выходной формат : Внутренние WAV-операции
Формат сэмплов  : 44.100 Гц; 16 бит; стерео
TOC извлечённого CD
     Трек |   Старт  | Длительность | Начальный сектор | Конечный сектор
    ---------------------------------------------------------------------
       1  |  0:00.00 |    3:26.20   |           0      |      15469
       2  |  3:26.20 |    2:42.68   |       15470      |      27687
       3  |  6:09.13 |    3:21.69   |       27688      |      42831
       4  |  9:31.07 |    3:18.14   |       42832      |      57695
       5  | 12:49.21 |    3:16.20   |       57696      |      72415
       6  | 16:05.41 |    3:56.03   |       72416      |      90118
       7  | 20:01.44 |    4:33.22   |       90119      |     110615
       8  | 24:34.66 |    3:19.54   |      110616      |     125594
       9  | 27:54.45 |    3:29.04   |      125595      |     141273
      10  | 31:23.49 |    2:40.47   |      141274      |     153320
      11  | 34:04.21 |    3:53.60   |      153321      |     170855
      12  | 37:58.06 |    4:17.34   |      170856      |     190164
      13  | 42:15.40 |    3:11.18   |      190165      |     204507
      14  | 45:26.58 |    3:05.55   |      204508      |     218437
      15  | 48:32.38 |    2:59.70   |      218438      |     231932
      16  | 51:32.33 |    3:41.46   |      231933      |     248553
      17  | 55:14.04 |    3:53.33   |      248554      |     266061
      18  | 59:07.37 |    3:53.68   |      266062      |     283604
      19  | 63:01.30 |    3:39.53   |      283605      |     300082
      20  | 66:41.08 |    3:33.63   |      300083      |     316120
      21  | 70:14.71 |    3:36.70   |      316121      |     332390
Характеристики диапазона извлечения и сообщения об ошибках
Выбранный диапазон
     Имя файла C:\_torrents\Игорек - Superstars - 2013 (lossless)\Игорек - Superstars.wav
     Пиковый уровень 100.0 %
     Скорость извлечения 8.2 X
     Качество диапазона 99.9 %
     CRC теста 8F0C44E7
     CRC копии 8F0C44E7
     Копирование... OK
Ошибок не произошло
AccurateRip: сводка
Трек  1  : извлечено точно (доверие 1)  [C74B8D6E]  (AR v2)
Трек  2  : извлечено точно (доверие 1)  [8D7CB5E7]  (AR v2)
Трек  3  : извлечено точно (доверие 1)  [4F51829E]  (AR v2)
Трек  4  : извлечено точно (доверие 1)  [896A0249]  (AR v2)
Трек  5  : извлечено точно (доверие 1)  [255E186A]  (AR v2)
Трек  6  : извлечено точно (доверие 1)  [0E379A62]  (AR v2)
Трек  7  : извлечено точно (доверие 1)  [4BAAC9C6]  (AR v2)
Трек  8  : извлечено точно (доверие 1)  [128701C4]  (AR v2)
Трек  9  : извлечено точно (доверие 1)  [00ADFCF3]  (AR v2)
Трек 10  : извлечено точно (доверие 1)  [94FEF435]  (AR v2)
Трек 11  : извлечено точно (доверие 1)  [B1A7E9CA]  (AR v2)
Трек 12  : извлечено точно (доверие 1)  [0FAB0E6D]  (AR v2)
Трек 13  : извлечено точно (доверие 1)  [1878D4E5]  (AR v2)
Трек 14  : извлечено точно (доверие 1)  [284E1129]  (AR v2)
Трек 15  : извлечено точно (доверие 1)  [9CB2AB73]  (AR v2)
Трек 16  : извлечено точно (доверие 1)  [4169291B]  (AR v2)
Трек 17  : извлечено точно (доверие 1)  [C7476D17]  (AR v2)
Трек 18  : извлечено точно (доверие 1)  [D30F2F79]  (AR v2)
Трек 19  : извлечено точно (доверие 1)  [9EE166F6]  (AR v2)
Трек 20  : извлечено точно (доверие 1)  [7B464637]  (AR v2)
Трек 21  : извлечено точно (доверие 1)  [81C943CC]  (AR v2)
Все треки извлечены точно
Конец отчёта
==== Контрольная сумма отчёта 7DA6CAAF1849E637D849C20A5D4BB09327814CC81C93F82D656C4F304CFA5E6A ====

Скриншот спектра частот

--
Яндекс.Метрика
Рейтинг@Mail.ru