[ Сегодня на трекере фрилич! Идет свободное скачивание без начисления Download ]

Максимальное ускорение / Maximum Overdrive (Стивен Кинг / Stephen King) [1986 г., ужасы, фантастика, боевик, триллер, комедия, HDRip-AVC] AVO (Сербин VHS) + VO (Неизвестный VHS) + Original (Eng)

 

Создавать темы 28-Янв-2015 07:16

Максимальное ускорение / Maximum Overdrive
Год выпуска: 1986
Производство: США
Жанр: ужасы, фантастика, боевик, триллер, комедия
Продолжительность: 01:38:06
Перевод: Авторский (одноголосый, закадровый) Юрий Сербин VHS
Перевод: Любительский (одноголосый, закадровый) Неизвестный VHS
Оригинальный аудиопоток: английский
Субтитры: отсутствуют
Режиссер: Стивен Кинг / Stephen King
В ролях: Эмилио Эстевес, Пэт Хингл, Лора Хэррингтон, Йердли Смит, Джон Шорт, Эллен МакЭлдафф, Дж. С. Куинн, Кристофер Мерни, Холтер Грэм, Фрэнки Фэйзон, Пэт Миллер, Джанкарло Эспозито, Нед Остин, Стивен Кинг
Описание: Когда комета Ри-М проходит через орбиту Земли и задевает ее своим хвостом, происходит глобальная катастрофа. Перестают качать насосы, выходят из строя компьютеры, электрические ножи режут домохозяек, а газонокосилки косят людей как траву. Внезапно ожившие машины из лучших друзей человека превращаются в его злейших врагов, жаждущих человеческой крови. Особенно безжалостно ведут себя огромные грузовики, давящие всех на своем пути.
Горстка людей во главе с Билли Робинсоном, укрывшись от стаи взбесившихся грузовиков в здании бензозаправочной станции, готовится дать последний бой взбунтовавшимся машинам…
Качество видео: HDRip-AVC
Контейнер: MKV
Видео кодек: H.264
Аудио кодек: AC3
Видео: 1024x434, 23.976 fps, 2057 Kbps, 0.193 Bt/Px
Аудио : AC-3, 192 Kbps, 2 ch, 48.0 KHz Rus Сербин VHS
Аудио : AC-3, 192 Kbps, 2 ch, 48.0 KHz Rus Неизвестный VHS
Аудио : AC-3, 192 Kbps, 2 ch, 48.0 KHz Eng Original

Доп. информация

HD рип сделан с BDRip 1080P найденного в сети, дороги из имеющихся.

Media Info

G:\загрузки\maximum.overdrive.mkv
General
Unique ID : 231577216313532800556741467033523380006 (0xAE382647D5A10E2A9BF82FC82702DF26)
Complete name : G:\загрузки\maximum.overdrive.mkv
Format : Matroska
Format version : Version 1
File size : 1.84 GiB
Duration : 1h 38mn
Overall bit rate : 2 687 Kbps
Encoded date : UTC 2015-01-27 15:20:02
Writing application : mkvmerge v2.5.3 ('Boogie') built on Mar 7 2009 15:00:41
Writing library : libebml v0.7.7 + libmatroska v0.8.1
Video #1
ID : 1
Format : AVC
Format/Info : Advanced Video Codec
Format profile : [email protected]
Format settings, CABAC : Yes
Format settings, ReFrames : 12 frames
Codec ID : V_MPEG4/ISO/AVC
Duration : 1h 38mn
Bit rate : 2 057 Kbps
Width : 1 024 pixels
Height : 434 pixels
Display aspect ratio : 2.35:1
Frame rate mode : Constant
Frame rate : 23.976 fps
Color space : YUV
Chroma subsampling : 4:2:0
Bit depth : 8 bits
Scan type : Progressive
Bits/(Pixel*Frame) : 0.193
Stream size : 1.41 GiB (77%)
Writing library : x264 core 130 r2273 b3065e6
Encoding settings : cabac=1 / ref=12 / deblock=1:0:0 / analyse=0x3:0x133 / me=umh / subme=11 / psy=1 / psy_rd=1.00:0.10 / mixed_ref=1 / me_range=24 / chroma_me=1 / trellis=2 / 8x8dct=1 / cqm=0 / deadzone=21,11 / fast_pskip=1 / chroma_qp_offset=-3 / threads=6 / lookahead_threads=1 / sliced_threads=0 / nr=0 / decimate=1 / interlaced=0 / bluray_compat=0 / constrained_intra=0 / bframes=8 / b_pyramid=2 / b_adapt=2 / b_bias=0 / direct=1 / weightb=1 / open_gop=0 / weightp=2 / keyint=250 / keyint_min=23 / scenecut=40 / intra_refresh=0 / rc=crf / mbtree=0 / crf=17.0 / qcomp=0.60 / qpmin=0 / qpmax=51 / qpstep=4 / ip_ratio=1.40 / pb_ratio=1.30 / aq=1:1.00
Language : English
Default : Yes
Forced : No
Audio #2
ID : 2
Format : AC-3
Format/Info : Audio Coding 3
Mode extension : CM (complete main)
Format settings, Endianness : Big
Codec ID : A_AC3
Duration : 1h 38mn
Bit rate mode : Constant
Bit rate : 192 Kbps
Channel(s) : 2 channels
Channel positions : Front: L R
Sampling rate : 48.0 KHz
Bit depth : 16 bits
Compression mode : Lossy
Stream size : 135 MiB (7%)
Title : AVO Сербин
Language : Russian
Default : Yes
Forced : No
Audio #3
ID : 3
Format : AC-3
Format/Info : Audio Coding 3
Mode extension : CM (complete main)
Format settings, Endianness : Big
Codec ID : A_AC3
Duration : 1h 38mn
Bit rate mode : Constant
Bit rate : 192 Kbps
Channel(s) : 2 channels
Channel positions : Front: L R
Sampling rate : 48.0 KHz
Bit depth : 16 bits
Compression mode : Lossy
Stream size : 135 MiB (7%)
Title : AVO Неопознан
Language : Russian
Default : No
Forced : No
Audio #4
ID : 4
Format : AC-3
Format/Info : Audio Coding 3
Mode extension : CM (complete main)
Format settings, Endianness : Big
Codec ID : A_AC3
Duration : 1h 38mn
Bit rate mode : Constant
Bit rate : 192 Kbps
Channel(s) : 2 channels
Channel positions : Front: L R
Sampling rate : 48.0 KHz
Bit depth : 16 bits
Compression mode : Lossy
Stream size : 135 MiB (7%)
Language : English
Default : No
Forced : No

log x.264

x264 [info]: frame I:1045  Avg QP:15.02  size: 59431
x264 [info]: frame P:32533 Avg QP:16.25 size: 22487
x264 [info]: frame B:107557 Avg QP:18.37 size: 7069
x264 [info]: consecutive B-frames: 2.0% 2.7% 8.0% 34.0% 20.6% 24.0% 5.0% 2.7% 1.0%
x264 [info]: mb I I16..4: 7.0% 76.6% 16.3%
x264 [info]: mb P I16..4: 1.6% 15.3% 2.3% P16..4: 29.2% 34.4% 12.8% 2.3% 0.2% skip: 1.9%
x264 [info]: mb B I16..4: 0.6% 2.4% 0.3% B16..8: 32.7% 22.3% 3.4% direct: 8.5% skip:29.8% L0:38.9% L1:42.9% BI:18.2%
x264 [info]: 8x8 transform intra:76.7% inter:54.6%
x264 [info]: coded y,uvDC,uvAC intra: 79.2% 73.3% 48.4% inter: 26.0% 25.8% 3.8%
x264 [info]: i16 v,h,dc,p: 55% 12% 12% 22%
x264 [info]: i8 v,h,dc,ddl,ddr,vr,hd,vl,hu: 19% 13% 14% 6% 8% 9% 10% 9% 12%
x264 [info]: i4 v,h,dc,ddl,ddr,vr,hd,vl,hu: 32% 12% 9% 5% 9% 9% 10% 6% 8%
x264 [info]: i8c dc,h,v,p: 30% 32% 21% 16%
x264 [info]: Weighted P-Frames: Y:10.6% UV:5.4%
x264 [info]: ref P L0: 46.3% 11.3% 18.4% 5.6% 4.8% 3.2% 3.1% 1.6% 1.6% 1.3% 1.3% 1.2% 0.2% 0.0%
x264 [info]: ref B L0: 78.2% 10.4% 3.9% 2.1% 1.4% 1.2% 1.0% 0.7% 0.6% 0.4% 0.2%
x264 [info]: ref B L1: 94.9% 5.1%
x264 [info]: kb/s:2111.93
x264 [total]: encoded 141135 frames, 5.11 fps, 2111.93 kb/s

Скриншоты

Яндекс.Метрика
Рейтинг@Mail.ru