[ Сегодня на трекере фрилич! Идет свободное скачивание без начисления Download ]

Царство / Reign (Сезон 2 / Серии: 11 из 22 серии) (Джеримайя С. Чечик / Jeremiah S. Chechik, ...) [2014г., Фэнтези, Драма, WEB-DLRip] MVO (Amedia) [обновляемая]

 

Создавать темы 26-Янв-2015 04:40

Царство / Reign
«Love is the most dangerous subject»
- Русское название: Царство
Оригинальное название: Reign
Страна: США
Год выпуска: 2014
Жанр: Фэнтези, Драма-Релиз:
Перевод: Многоголосый закадровый, профессиональный
Оригинальный аудиопоток: английский-Озвучка: Amedia
Работа со звуком: k-marat-s, BS666
Рип: qqss44-Премьера (мир): 17 октября 2013
Премьера (РФ): 18 октября 2013-Режиссер: Джеримайя С. Чечик / Jeremiah S. Chechik, Холли Дэйл / Holly Dale, Фред Гербер / Fred Gerber, ...
В главных ролях: Аделаида Кэйн, Тоби Регбо, Торранс Кумбс, Меган Фоллоуз, Алан Ван Спрэнг, Селина Синден, Кэйтлин Стэйси, Анна Попплуэлл, Дженесса Грант, Марк Балдесарра ...-Описание фильма:
Сериал, повествующий о событиях 1557 года. Королеву Шотландии, Марию, с детства прячут в монастыре. Обходить стороной соперников, злодеев, желающих ее смерти, ей помогают монахини. Но приходит время возвращаться в замок и становиться не только титулованной королевой, но и женой принца Франциска, с которым девушка была обручена ещё несколько лет назад. Основу всей царской жизни составляют хитроумные планы и интриги. Король смотрит на замужество только как на способ сблизиться с другой страной и сделать свою власть ещё масштабнее и крепче. О светлых чувствах и влечениях речь идет только в сердце самой Марии, которая сразу же прибыв в замок, оказывается в центре сплетен и слухов. «Царство» рассказывает о приходе к власти Марии, о ее любви, о ее стремлениях и характере. Мария становится светлым лучиком в царстве тьмы, где правят темные силы и сексуальные интриги.
Сериал "Царство" примечателен еще тем, что является единственной драмой на американском телевидении, которая полностью снимается в Европе.-Сезон: 2
Серии: 11 из 22 серий
Продолжительность: ~ 00:42:00 мин серия-Качество видео: WEB-DLRip
Формат: AVI
Видеокодек: XviD
Аудиокодек: AC-3
Видео: MPEG-4 Visual at 1503 Кбит/сек: 720 x 400 (1.800) at 25.000 fps, 0.21 bit/pixel
Аудио Rus: AC-3 at 384 Кбит/сек, 6 каналов, 48,0 КГц |Amedia|
- --

Список серий:

  • Чума (The Plague)
  • Четвертовать (Drawn and Quartered)
  • Коронация (Coronation)
  • Ягненок и резня (The Lamb and The Slaughter)
  • Кровь за кровь (Blood for Blood)
  • Три Царицы (Three Queens)
  • Принц крови (The Prince of the Blood)
  • Террор верующего (Terror of the Faithful)
  • Военные действия (Acts of War)
  • Милосердие (Mercy)
  • Бегство (Getaway)
-

MediaInfo:

Общее
Полное имя                               : E:\_Сериалы\_Сериалы\Царство\Царство (S02)\Reign.S02E01.Amedia.[qqss44].avi
Формат                                   : AVI
Формат/Информация                        : Audio Video Interleave
Размер файла                             : 549 Мбайт
Продолжительность                        : 40 м.
Общий поток                              : 1897 Кбит/сек
Программа кодирования                    : VirtualDubMod 1.5.10.3 | www.virtualdub-fr.org || (build 2550/release)
Библиотека кодирования                   : VirtualDubMod build 2550/release
Видео
Идентификатор                            : 0
Формат                                   : MPEG-4 Visual
Профиль формата                          : Advanced [email protected]
Параметр BVOP формата                    : 2
Параметр QPel формата                    : Нет
Параметр GMC формата                     : Без точки перехода
Параметр матрицы формата                 : Default (MPEG)
Идентификатор кодека                     : XVID
Идентификатор кодека/Подсказка           : XviD
Продолжительность                        : 40 м.
Битрейт                                  : 1503 Кбит/сек
Ширина                                   : 720 пикселей
Высота                                   : 400 пикселей
Соотношение сторон                       : 16:9
Частота кадров                           : 25,000 кадров/сек
Цветовое пространство                    : YUV
Субдискретизация насыщенности            : 4:2:0
Битовая глубина                          : 8 бит
Тип развёртки                            : Прогрессивная
Метод сжатия                             : С потерями
Бит/(Пиксели*Кадры)                      : 0.209
Размер потока                            : 435 Мбайт (79%)
Библиотека кодирования                   : XviD 73
Аудио
Идентификатор                            : 1
Формат                                   : AC-3
Формат/Информация                        : Audio Coding 3
Расширение режима                        : CM (complete main)
Параметр Endianness формата              : Big
Идентификатор кодека                     : 2000
Продолжительность                        : 40 м.
Вид битрейта                             : Постоянный
Битрейт                                  : 384 Кбит/сек
Каналы                                   : 6 каналов
Расположение каналов                     : Front: L C R, Side: L R, LFE
Частота                                  : 48,0 КГц
Битовая глубина                          : 16 бит
Метод сжатия                             : С потерями
Размер потока                            : 111 Мбайт (20%)
Выравнивание                             : Разделение по промежуткам
Продолжительность промежутка             : 40  мс. (1,00 видеокадр)
Время предзагрузки промежутка            : 500  мс.
-

Скриншот c названием фильма

-Скриншоты:
-

Еще

-

Внимание! Раздача ведётся путём добавления новых серий!

Раздача ведётся путём добавления новых серий; при каждом добавлении создаётся новый торрент.
Чтобы начать докачку новой серии, пользователям необходимо сделать следующее:
1. остановить скачивание,
2. удалить старый торрент у себя из клиента (старые серии удалять не надо),
3. скачать новый торрент и запустить его у себя в клиенте вместо старого, при этом указать клиенту путь в старую папку, куда и должно происходить скачивание новых серий.
Ваш клиент при этом должен произвести хеширование (проверку) старой папки (если не производит сам - помогите ему сделать это), и будет докачивать только те серии которых у вас ещё нет. Старые серии при этом не удаляются, а продолжают раздаваться!
Eсли вы уже удалили старые серии, то предотвратить повторную закачку старых серий можно, отжав галочку в соответствующих местах при запуске нового торрента. По возможности, желательно не удалять старые серии как можно дольше, чтобы релизёр не столько продолжал раздавать старые серии, а смог сконцентрироваться на новых.
Совет для тех, кто не хочет ждать перехеширования:
Создайте ещё одну папку рядом с папкой сериала (рядом, а не в ней!!!). Каждую новую серию после удачной загрузки копируйте в новую папку так чтобы ваша основная папка всегда была пуста. Когда ваш новый торрент предложит вам закачать все файлы, выберете только последнюю. Для сидирования же укажите адрес новой папки.
Как закачать отдельный файл из торрента или докачать ранее пропущенные файлы торрента!
-

Как закачать отдельный файл

1. Открыть торрент
2. Снять галки с тех файлов торрента, которые мы не хотим закачивать. Оставляем только на нужных нам файлах (файле).
3. Нажать О.К.
В клиенте utorrent
Инструкция
1) Открыть торрент

2) Снять галки с тех файлов торрента, которые мы не хотим закачивать:
* либо вручную, снимая с каждого файла галку( скрин №1)
* либо, нажав кнопку "Снять метки (Select None)", сняв сразу со всех файлов(скрин №2)
№1

№2

Оставляем только на нужных нам файлах (файле).

3)Нажать О.К
-Добавлена одиннадцатая серия второго сезона
Яндекс.Метрика
Рейтинг@Mail.ru