[ Сегодня на трекере фрилич! Идет свободное скачивание без начисления Download ]

Джон Уик / John Wick (Дэвид Лейтч / David Leitch, Чад Стахелски / Chad Stahelski) [2014 г., боевик, триллер, BDRemux, 1080p] Dub (Line)+ VO + Sub (Rus, Eng) + Original (Eng)

 

Создавать темы 26-Янв-2015 04:36

-Джон Уик / John Wick-- Производство: Китай, Канада, США / 87Eleven, Company Films, DefyNite Films
Год выпуска: 2014 г.
Жанр: боевик, триллер
Продолжительность: 01:42:12
Мировая премьера: 19 сентября 2014, ...
Российская премьера: 1 января 2015, «West»
Перевод: Профессиональный (полное дублирование) [Чистый звук]
Перевод 2: Любительский (одноголосый, закадровый) [А.Матвеев]
Оригинальный аудиопоток: английский
Режиссер: Дэвид Лейтч / David Leitch, Чад Стахелски / Chad Stahelski-В ролях: Киану Ривз, Микаэл Нюквист, Элфи Оуэн-Аллен, Уиллем Дефо, Дин Уинтерс, Эдрианн Палики, Омер Барнеа, Тоби Мур, Дэниэл Бернхард, Бриджет Мойнэхэн-Описание: Джон Уик — бывший наемный убийца — ведет размеренную жизнь, когда преступник крадет его любимый Mustang 1969 года и попутно убивает собаку Дейзи, единственное живое напоминание об умершей жене. Жажда мести пробуждает в нем, казалось, утерянную хватку…-
Качество видео: BDRemux
Контейнер: MKV
Стандарт разрешения: 1080p
Видео кодек: Другой MPEG4
Аудио кодек: AC3 / TrueHD
Видео: MPEG-4 AVC, 33233 Кb/s, 1920x1080, 23,976 fps
Аудио: Russian: AC3, 128 Kb/s (2 ch) / AC3, 384 Kb/s (6 ch)
Аудио #2: English: TrueHD, 5204 Kb/s (8 ch)
Cубтитры: Russian, English
Формат субтитров: softsub (SRT)

Media Info

Общее
Уникальный идентификатор : 172066377512319132604355793845203573040 (0x8172C76528D4A575A1A93DBB96111930)
Полное имя : D:ФильмыJohn Wick.2014.D.A.BDRemux.1080p.mkv
Формат : Matroska
Версия формата : Version 2
Размер файла : 27,6 Гбайт
Продолжительность : 1 ч. 42 м.
Режим общего битрейта : Переменный
Общий поток : 38,6 Мбит/сек
Название фильма : By_zzZGVvv
Дата кодирования : UTC 2015-01-23 13:37:19
Программа кодирования : mkvmerge v5.8.0 ('No Sleep / Pillow') built on Sep 2 2012 15:37:04
Библиотека кодирования : libebml v1.2.3 + libmatroska v1.3.0
Attachment : Yes
Видео
Идентификатор : 1
Формат : AVC
Формат/Информация : Advanced Video Codec
Профиль формата : [email protected]
Параметр CABAC формата : Да
Параметр ReFrames формата : 4 кадра
Идентификатор кодека : V_MPEG4/ISO/AVC
Продолжительность : 1 ч. 42 м.
Вид битрейта : Переменный
Максимальный битрейт : 36,0 Мбит/сек
Ширина : 1920 пикселей
Высота : 1080 пикселей
Соотношение сторон : 16:9
Режим частоты кадров : Постоянный
Частота кадров : 23,976 кадра/сек
Цветовое пространство : YUV
Субдискретизация насыщенности : 4:2:0
Битовая глубина : 8 бит
Тип развёртки : Прогрессивная
Заголовок : John Wick (2014)1080p.BluRay.AVC
Язык : English
Default : Да
Forced : Нет
Аудио #1
Идентификатор : 2
Формат : AC-3
Формат/Информация : Audio Coding 3
Расширение режима : CM (complete main)
Параметр Endianness формата : Big
Идентификатор кодека : A_AC3
Продолжительность : 1 ч. 42 м.
Вид битрейта : Постоянный
Битрейт : 128 Кбит/сек
Каналы : 2 канала
Расположение каналов : Front: L R
Частота : 48,0 КГц
Битовая глубина : 16 бит
Метод сжатия : С потерями
Размер потока : 93,6 Мбайт (0%)
Заголовок : DUB [Line]
Язык : Russian
Default : Да
Forced : Да
Аудио #2
Идентификатор : 3
Формат : AC-3
Формат/Информация : Audio Coding 3
Расширение режима : CM (complete main)
Параметр Endianness формата : Big
Идентификатор кодека : A_AC3
Продолжительность : 1 ч. 42 м.
Вид битрейта : Постоянный
Битрейт : 384 Кбит/сек
Каналы : 6 каналов
Расположение каналов : Front: L C R, Side: L R, LFE
Частота : 48,0 КГц
Битовая глубина : 16 бит
Метод сжатия : С потерями
Размер потока : 281 Мбайт (1%)
Заголовок : AVO [А.Матвеев]]
Язык : Russian
Default : Нет
Forced : Нет
Аудио #3
Идентификатор : 4
Формат : TrueHD
Идентификатор кодека : A_TRUEHD
Продолжительность : 1 ч. 42 м.
Вид битрейта : Переменный
Максимальный битрейт : 6144 Кбит/сек
Каналы : 8 каналов
Расположение каналов : Front: L C R, Side: L R, Back: L R, LFE
Частота : 48,0 КГц
Метод сжатия : Без потерь
Заголовок : TrueHD.7.1 / 5204 kbps
Язык : English
Default : Нет
Forced : Нет
Текст #1
Идентификатор : 5
Формат : UTF-8
Идентификатор кодека : S_TEXT/UTF8
Идентификатор кодека/Информация : UTF-8 Plain Text
Заголовок : перевод А.Матвеев
Язык : Russian
Default : Нет
Forced : Нет
Текст #2
Идентификатор : 6
Формат : UTF-8
Идентификатор кодека : S_TEXT/UTF8
Идентификатор кодека/Информация : UTF-8 Plain Text
Язык : English
Default : Нет
Forced : Нет
Меню
00:00:00.000 : :Chapter 01
00:04:57.505 : :Chapter 03
00:12:21.865 : :Chapter 05
00:17:07.734 : :Chapter 07
00:26:25.166 : :Chapter 09
00:32:40.249 : :Chapter 11
00:36:24.598 : :Chapter 13
00:42:16.033 : :Chapter 15
00:45:33.272 : :Chapter 17
00:55:02.507 : :Chapter 19
00:59:27.563 : :Chapter 21
01:06:13.427 : :Chapter 23
01:14:15.909 : :Chapter 25
01:19:13.039 : :Chapter 27
01:27:29.786 : :Chapter 29
01:32:24.789 : :Chapter 31
01:41:12.649 : :Chapter 32

Скриншоты

Яндекс.Метрика
Рейтинг@Mail.ru