(Heavy Metal) U.D.O. - Decadent [Limited Edition] - 2015 [FLAC, image+.cue, Lossless]

 

Создавать темы 26-Янв-2015 04:25

-U.D.O. - Decadent [Limited Edition]--
Год издания: 2015
Страна: Germany
Жанр: Heavy Metal
Продолжительность: 01:07:43-Лейбл издания: AFM Records
Формат: FLAC
Битрейт аудио: Lossless
Тип рипа: image+.cue
Наличие сканов в содержимом раздачи: да-Трэклист:
01. Speeder
02. Decadent
03. House Of Fake
04. Mystery
05. Pain
06. Secrets In Paradise
07. Meaning Of Life
08. Breathless
09. Let Me Out (Bonus Track)
10. Under Your Skin
11. Untouchable
12. Shadow Eyes (Bonus Track)
13. Rebels Of The Night
14. Words In Flame

Log

Exact Audio Copy V1.0 beta 3 from 29. August 2011
EAC extraction logfile from 23. January 2015, 17:57
U.D.O. / Decadent (Limited Edition)
Used drive  : HP      DVD Writer 1170d   Adapter: 0  ID: 0
Read mode               : Secure
Utilize accurate stream : Yes
Defeat audio cache      : Yes
Make use of C2 pointers : No
Read offset correction                      : 6
Overread into Lead-In and Lead-Out          : No
Fill up missing offset samples with silence : Yes
Delete leading and trailing silent blocks   : No
Null samples used in CRC calculations       : Yes
Used interface                              : Native Win32 interface for Win NT & 2000
Used output format              : User Defined Encoder
Selected bitrate                : 768 kBit/s
Quality                         : High
Add ID3 tag                     : No
Command line compressor         : C:\Program Files (x86)\Exact Audio Copy\FLAC\FLAC.EXE
Additional command line options : -V -8 -T "Date=%year%" -T "Genre=%genre%" -T"COMMENT=Ripped by Ungern666" -8 -V %source%
TOC of the extracted CD
Track |   Start  |  Length  | Start sector | End sector
---------------------------------------------------------
1  |  0:00.00 |  3:44.40 |         0    |    16839
2  |  3:44.40 |  4:49.07 |     16840    |    38521
3  |  8:33.47 |  4:25.44 |     38522    |    58440
4  | 12:59.16 |  4:35.34 |     58441    |    79099
5  | 17:34.50 |  5:10.28 |     79100    |   102377
6  | 22:45.03 |  5:00.01 |    102378    |   124878
7  | 27:45.04 |  4:33.69 |    124879    |   145422
8  | 32:18.73 |  5:20.40 |    145423    |   169462
9  | 37:39.38 |  3:56.12 |    169463    |   187174
10  | 41:35.50 |  4:22.20 |    187175    |   206844
11  | 45:57.70 |  5:09.15 |    206845    |   230034
12  | 51:07.10 |  4:20.39 |    230035    |   249573
13  | 55:27.49 |  4:40.39 |    249574    |   270612
14  | 60:08.13 |  7:35.48 |    270613    |   304785
Range status and errors
Selected range
Filename C:\EAC\Ungern666\U.D.O. - Decadent (Limited Edition).wav
Peak level 95.6 %
Extraction speed 8.3 X
Range quality 100.0 %
Test CRC 0450B02E
Copy CRC 0450B02E
Copy OK
No errors occurred
AccurateRip summary
Track  1  not present in database
Track  2  not present in database
Track  3  not present in database
Track  4  not present in database
Track  5  not present in database
Track  6  not present in database
Track  7  not present in database
Track  8  not present in database
Track  9  not present in database
Track 10  not present in database
Track 11  not present in database
Track 12  not present in database
Track 13  not present in database
Track 14  not present in database
None of the tracks are present in the AccurateRip database
End of status report
==== Log checksum 99AE45E68C2D513EA66E1C2790637C2C5CE2465D408DC639CF7E4A95D054C834 ====

Cue

REM DATE 2015
REM DISCID CB0FDF0E
REM COMMENT "ExactAudioCopy v1.0b3"
PERFORMER "U.D.O."
TITLE "Decadent (Limited Edition)"
FILE "U.D.O. - Decadent (Limited Edition).flac" WAVE
TRACK 01 AUDIO
TITLE "Speeder"
PERFORMER "U.D.O."
INDEX 01 00:00:00
TRACK 02 AUDIO
TITLE "Decadent"
PERFORMER "U.D.O."
INDEX 01 03:44:40
TRACK 03 AUDIO
TITLE "House Of Fake"
PERFORMER "U.D.O."
INDEX 01 08:33:47
TRACK 04 AUDIO
TITLE "Mystery"
PERFORMER "U.D.O."
INDEX 01 12:59:16
TRACK 05 AUDIO
TITLE "Pain"
PERFORMER "U.D.O."
INDEX 01 17:34:50
TRACK 06 AUDIO
TITLE "Secrets In Paradise"
PERFORMER "U.D.O."
INDEX 01 22:45:03
TRACK 07 AUDIO
TITLE "Meaning Of Life"
PERFORMER "U.D.O."
INDEX 01 27:45:04
TRACK 08 AUDIO
TITLE "Breathless"
PERFORMER "U.D.O."
INDEX 01 32:18:73
TRACK 09 AUDIO
TITLE "Let Me Out"
PERFORMER "U.D.O."
INDEX 01 37:39:38
TRACK 10 AUDIO
TITLE "Under Your Skin"
PERFORMER "U.D.O."
INDEX 01 41:35:50
TRACK 11 AUDIO
TITLE "Untouchable"
PERFORMER "U.D.O."
INDEX 01 45:57:70
TRACK 12 AUDIO
TITLE "Shadow Eyes"
PERFORMER "U.D.O."
INDEX 01 51:07:10
TRACK 13 AUDIO
TITLE "Rebels Of The Night"
PERFORMER "U.D.O."
INDEX 01 55:27:49
TRACK 14 AUDIO
TITLE "Words In Flame"
PERFORMER "U.D.O."
INDEX 01 60:08:13
-
Яндекс.Метрика
Рейтинг@Mail.ru