Снежная королева 2: Перезаморозка (Алексей Цицилин) [2014 г., Фэнтези, Приключения, Семейный, WEBRip]

 

Создавать темы 26-Янв-2015 04:23

-Снежная королева 2: Перезаморозка-- Производство: Россия
Режиссер: Алексей Цицилин
Жанр: Фэнтези, Приключения, Семейный
Год выпуска: 2014 г.
Продолжительность: 01:13:2
Мировая премьера: 12 декабря 2014
Российская премьера: 1 января 2015, «Двадцатый Век Фокс СНГ», «Bazelevs Distribution»
Перевод: Не требуется
Роли озвучивали: Иван Охлобыстин, Нюша Шурочкина, Анна Хилькевич, Александр Уман, Игорь Бортник, Алексей Лихницкий, Роман Юнусов, Александр Гудков, Михаил Тихонов-Описание: Тщеславный тролль Орм давно мечтает о лаврах героя, и наконец получает этот шанс: северный ветер грозит миру вечной зимой и похищает Марибель. Рука принцессы и королевство троллей достанутся тому, кто вызволит ее из снежного плена. Однажды Орм победил зиму с помощью друзей, теперь он хочет действовать в одиночку. На нем доспехи из сковородок, за ним — отряд трусливых троллей, а впереди — опасный путь к замку Снежной королевы. Но, к счастью, друзья не помнят обид: храбрая Герда, застенчивый Кай, удалая Альфида и весёлая Лута не бросят Орма в беде. А значит их ждут невероятные приключения!-СЭМПЛ
КиноПоиск
Качество видео: WEBRip
Контейнер: AVI
Видео кодек: XviD
Аудио кодек: AC3
Видео: 720x304 (2.37:1), 24 fps, XviD build 50 ~1881 kbps avg, 0.36 bit/pixel
Аудио: 48 kHz, AC3 Dolby Digital, 2/0 (L,R) ch, ~384 kbps
Аудио #2: 48 kHz, AC3 Dolby Digital, 2/0 (L,R) ch, ~384 kbps
Cубтитры: отсутствуют

Media Info

Общее
Полное имя : E:\Фильмы\Snegnaya.Koroleva.2015.O.WEBRip.1400Mb.avi
Формат : AVI
Формат/Информация : Audio Video Interleave
Размер файла : 1,37 Гбайт
Продолжительность : 1 ч. 13 м.
Общий поток : 2665 Кбит/сек
Программа кодирования : VirtualDubMod 1.5.10.2 (build 2540/release)
Библиотека кодирования : VirtualDubMod build 2540/release
Видео
Идентификатор : 0
Формат : MPEG-4 Visual
Профиль формата : Advanced [email protected]
Параметр BVOP формата : 2
Параметр QPel формата : Нет
Параметр GMC формата : Без точки перехода
Параметр матрицы формата : Default (MPEG)
Идентификатор кодека : XVID
Идентификатор кодека/Подсказка : XviD
Продолжительность : 1 ч. 13 м.
Битрейт : 1883 Кбит/сек
Ширина : 720 пикселей
Высота : 304 пикселя
Соотношение сторон : 2,35:1
Частота кадров : 24,000 кадра/сек
Цветовое пространство : YUV
Субдискретизация насыщенности : 4:2:0
Битовая глубина : 8 бит
Тип развёртки : Прогрессивная
Метод сжатия : С потерями
Бит/(Пиксели*Кадры) : 0.358
Размер потока : 989 Мбайт (71%)
Библиотека кодирования : XviD 1.2.1 (UTC 2008-12-04)
Аудио #1
Идентификатор : 1
Формат : AC-3
Формат/Информация : Audio Coding 3
Расширение режима : CM (complete main)
Параметр Endianness формата : Big
Идентификатор кодека : 2000
Продолжительность : 1 ч. 13 м.
Вид битрейта : Постоянный
Битрейт : 384 Кбит/сек
Каналы : 2 канала
Расположение каналов : Front: L R
Частота : 48,0 КГц
Битовая глубина : 16 бит
Метод сжатия : С потерями
Размер потока : 202 Мбайт (14%)
Выравнивание : Разделение по промежуткам
Продолжительность промежутка : 42 мс. (1,00 видеокадр)
Время предзагрузки промежутка : 500 мс.
Аудио #2
Идентификатор : 2
Формат : AC-3
Формат/Информация : Audio Coding 3
Расширение режима : CM (complete main)
Параметр Endianness формата : Big
Идентификатор кодека : 2000
Продолжительность : 1 ч. 13 м.
Вид битрейта : Постоянный
Битрейт : 384 Кбит/сек
Каналы : 2 канала
Расположение каналов : Front: L R
Частота : 48,0 КГц
Битовая глубина : 16 бит
Метод сжатия : С потерями
Размер потока : 202 Мбайт (14%)
Выравнивание : Разделение по промежуткам
Продолжительность промежутка : 42 мс. (1,00 видеокадр)
Время предзагрузки промежутка : 500 мс.
Скриншоты
Яндекс.Метрика
Рейтинг@Mail.ru