(Blues Rock, Soft Rock) Blue Blot - Yo Yo Man - 1994 (BMG Ariola Belgium NV/SA 74321 201542 Germany), FLAC (tracks+.cue), lossless

 

Создавать темы 21-Ноя-2013 08:32

Blue Blot - Yo Yo Man
Жанр: Blues Rock, Soft Rock
Страна-производитель диска: Germany
Год издания диска: 1994
Издатель (лейбл): BMG Ariola Belgium NV/SA
Номер по каталогу: 74321 201542
Страна: Belgium
Аудио кодек: FLAC (*.flac)
Тип рипа: tracks+.cue
Битрейт аудио: lossless
Продолжительность: 01:00:12
Источник (релизер): суслик
Наличие сканов в содержимом раздачи:
Треклист:
01. Yo Yo Man (Leann White, Tony Joe) 04:07
02. Gone Love You My Own Way (J.Meyers, L.Renneboog) 05:32
03. How Could I Know (L.Northover, M.Townsend) 04:05
04. Nothing Like A Woman (Reed Nielsen, Vince Gill) 05:40
05. Damn You Woman (L.Northover, M.Townsend) 03:51
06. So Thankful For Your Love (L.Renneboog, M.Townsend) 03:57
07. You Can't Get That Stuff No More (Tampa Red) 04:25
08. Angel (J.Hendrix) 05:01
09. Put Some Rhythm In My Blues (Fred Knobloch) 03:01
10. With You In Mind (Allen Toussaint) 04:22
11. Closing In On The (Tony Joe White) Fire 04:03
12. W.H.Y. (W.H.O.) (J.Meyers, L.Northover, L.Renneboog, M.Townsend) 02:39
13. Joe & Emily (L.Renneboog, M.Townsend) 02:47
14. Stone Junky (Curtis Mayfield) 06:36

Лог создания рипа

Exact Audio Copy V1.0 beta 3 from 29. August 2011
EAC extraction logfile from 30. March 2013, 18:51
Blue Blot / Yo Yo Man
Used drive : PLEXTOR BD-R PX-B940SA Adapter: 0 ID: 4
Read mode : Secure
Utilize accurate stream : Yes
Defeat audio cache : Yes
Make use of C2 pointers : No
Read offset correction : 667
Overread into Lead-In and Lead-Out : No
Fill up missing offset samples with silence : Yes
Delete leading and trailing silent blocks : No
Null samples used in CRC calculations : Yes
Used interface : Native Win32 interface for Win NT & 2000
Gap handling : Appended to previous track
Used output format : User Defined Encoder
Selected bitrate : 1024 kBit/s
Quality : High
Add ID3 tag : No
Command line compressor : C:\Program Files (x86)\Exact Audio Copy\Flac\flac.exe
Additional command line options : -8 -V -T "ARTIST=%artist%" -T "TITLE=%title%" -T "ALBUM=%albumtitle%" -T "DATE=%year%" -T "TRACKNUMBER=%tracknr%" -T "GENRE=%genre%" -T "PERFORMER=%albuminterpret%" -T "COMPOSER=%composer%" %haslyrics%--tag-from-file=LYRICS="%lyricsfile%"%haslyrics% -T "ALBUMARTIST=%albumartist%" -T "DISCNUMBER=%cdnumber%" -T "TOTALDISCS=%totalcds%" -T "TOTALTRACKS=%numtracks%" -T "COMMENT=%comment%" %source% -o %dest%
TOC of the extracted CD
Track | Start | Length | Start sector | End sector
---------------------------------------------------------
1 | 0:00.00 | 4:07.08 | 0 | 18532
2 | 4:07.08 | 5:32.20 | 18533 | 43452
3 | 9:39.28 | 4:05.60 | 43453 | 61887
4 | 13:45.13 | 5:40.42 | 61888 | 87429
5 | 19:25.55 | 3:51.05 | 87430 | 104759
6 | 23:16.60 | 3:57.03 | 104760 | 122537
7 | 27:13.63 | 4:25.47 | 122538 | 142459
8 | 31:39.35 | 5:01.30 | 142460 | 165064
9 | 36:40.65 | 3:01.40 | 165065 | 178679
10 | 39:42.30 | 4:22.33 | 178680 | 198362
11 | 44:04.63 | 4:03.10 | 198363 | 216597
12 | 48:07.73 | 2:39.55 | 216598 | 228577
13 | 50:47.53 | 2:47.50 | 228578 | 241152
14 | 53:35.28 | 6:36.47 | 241153 | 270899
Track 1
Filename E:\Waiting\FLAC\Blue Blot - Yo Yo Man (1994) [FLAC]\01 Yo Yo Man.wav
Pre-gap length 0:00:02.00
Peak level 100.0 %
Extraction speed 4.9 X
Track quality 100.0 %
Test CRC 5C2BC758
Copy CRC 5C2BC758
Accurately ripped (confidence 1) [733AE817] (AR v1)
Copy OK
Track 2
Filename E:\Waiting\FLAC\Blue Blot - Yo Yo Man (1994) [FLAC]\02 Gone Love You My Own Way.wav
Pre-gap length 0:00:01.08
Peak level 100.0 %
Extraction speed 5.7 X
Track quality 100.0 %
Test CRC B091DA49
Copy CRC B091DA49
Accurately ripped (confidence 1) [A58F1016] (AR v1)
Copy OK
Track 3
Filename E:\Waiting\FLAC\Blue Blot - Yo Yo Man (1994) [FLAC]\03 How Could I Know.wav
Pre-gap length 0:00:01.30
Peak level 93.8 %
Extraction speed 5.9 X
Track quality 100.0 %
Test CRC 7DA8E00C
Copy CRC 7DA8E00C
Accurately ripped (confidence 1) [F50B21F8] (AR v1)
Copy OK
Track 4
Filename E:\Waiting\FLAC\Blue Blot - Yo Yo Man (1994) [FLAC]\04 Nothing Like A Woman.wav
Pre-gap length 0:00:02.58
Peak level 100.0 %
Extraction speed 6.6 X
Track quality 100.0 %
Test CRC 64460F63
Copy CRC 64460F63
Accurately ripped (confidence 1) [7F97215F] (AR v1)
Copy OK
Track 5
Filename E:\Waiting\FLAC\Blue Blot - Yo Yo Man (1994) [FLAC]\05 Damn You Woman.wav
Pre-gap length 0:00:01.17
Peak level 97.1 %
Extraction speed 5.9 X
Track quality 99.9 %
Test CRC C4339527
Copy CRC C4339527
Accurately ripped (confidence 1) [2BCA5828] (AR v1)
Copy OK
Track 6
Filename E:\Waiting\FLAC\Blue Blot - Yo Yo Man (1994) [FLAC]\06 So Thankful For Your Love.wav
Pre-gap length 0:00:01.22
Peak level 85.2 %
Extraction speed 6.2 X
Track quality 99.9 %
Test CRC E12CD939
Copy CRC E12CD939
Accurately ripped (confidence 1) [01F29ED4] (AR v1)
Copy OK
Track 7
Filename E:\Waiting\FLAC\Blue Blot - Yo Yo Man (1994) [FLAC]\07 You Can't Get That Stuff No More.wav
Pre-gap length 0:00:02.53
Peak level 96.0 %
Extraction speed 7.4 X
Track quality 100.0 %
Test CRC 9C936D12
Copy CRC 9C936D12
Accurately ripped (confidence 1) [415D0C2A] (AR v1)
Copy OK
Track 8
Filename E:\Waiting\FLAC\Blue Blot - Yo Yo Man (1994) [FLAC]\08 Angel.wav
Peak level 98.9 %
Extraction speed 7.8 X
Track quality 100.0 %
Test CRC BE0AF7C4
Copy CRC BE0AF7C4
Accurately ripped (confidence 1) [CC66C0BF] (AR v1)
Copy OK
Track 9
Filename E:\Waiting\FLAC\Blue Blot - Yo Yo Man (1994) [FLAC]\09 Put Some Rhythm In My Blues.wav
Peak level 100.0 %
Extraction speed 7.4 X
Track quality 100.0 %
Test CRC 7196BAB7
Copy CRC 7196BAB7
Accurately ripped (confidence 1) [D3CB9867] (AR v1)
Copy OK
Track 10
Filename E:\Waiting\FLAC\Blue Blot - Yo Yo Man (1994) [FLAC]\10 With You In Mind.wav
Pre-gap length 0:00:01.30
Peak level 100.0 %
Extraction speed 8.1 X
Track quality 100.0 %
Test CRC 7916DAC6
Copy CRC 7916DAC6
Accurately ripped (confidence 1) [7BF8688E] (AR v1)
Copy OK
Track 11
Filename E:\Waiting\FLAC\Blue Blot - Yo Yo Man (1994) [FLAC]\11 Closing In On The Fire.wav
Pre-gap length 0:00:01.50
Peak level 100.0 %
Extraction speed 8.2 X
Track quality 100.0 %
Test CRC CFBF097E
Copy CRC CFBF097E
Accurately ripped (confidence 1) [3999ADF0] (AR v1)
Copy OK
Track 12
Filename E:\Waiting\FLAC\Blue Blot - Yo Yo Man (1994) [FLAC]\12 W.H.Y. (W.H.O.).wav
Pre-gap length 0:00:01.35
Peak level 100.0 %
Extraction speed 7.9 X
Track quality 100.0 %
Test CRC 15BDB5B6
Copy CRC 15BDB5B6
Accurately ripped (confidence 1) [73941BD4] (AR v1)
Copy OK
Track 13
Filename E:\Waiting\FLAC\Blue Blot - Yo Yo Man (1994) [FLAC]\13 Joe & Emily.wav
Pre-gap length 0:00:01.53
Peak level 100.0 %
Extraction speed 6.9 X
Track quality 99.9 %
Test CRC AB6F2361
Copy CRC AB6F2361
Accurately ripped (confidence 1) [62778626] (AR v1)
Copy OK
Track 14
Filename E:\Waiting\FLAC\Blue Blot - Yo Yo Man (1994) [FLAC]\14 Stone Junky.wav
Pre-gap length 0:00:02.15
Peak level 100.0 %
Extraction speed 9.3 X
Track quality 100.0 %
Test CRC 474ADB58
Copy CRC 474ADB58
Accurately ripped (confidence 1) [839EC407] (AR v1)
Copy OK
All tracks accurately ripped
No errors occurred
End of status report
---- CUETools DB Plugin V2.1.3
[CTDB TOCID: 7X2FMtlxZvkfdSgdEBOFJ9PSc.c-] found, Submit result: 7X2FMtlxZvkfdSgdEBOFJ9PSc.c- has been confirmed
[9cae24a5] (5/5) Accurately ripped
==== Log checksum 27F0071365CC481DC610838EB793370B836F2820A272A83CA48A824000E2F337 ====

Содержание индексной карты (.CUE)

REM GENRE Blues
REM DATE 1994
REM DISCID CF0E1C0E
REM COMMENT "ExactAudioCopy v1.0b3"
PERFORMER "Blue Blot"
TITLE "Yo Yo Man"
FILE "01 Yo Yo Man.wav" WAVE
TRACK 01 AUDIO
TITLE "Yo Yo Man"
PERFORMER "Blue Blot"
INDEX 01 00:00:00
TRACK 02 AUDIO
TITLE "Gone Love You My Own Way"
PERFORMER "Blue Blot"
INDEX 00 04:06:00
FILE "02 Gone Love You My Own Way.wav" WAVE
INDEX 01 00:00:00
TRACK 03 AUDIO
TITLE "How Could I Know"
PERFORMER "Blue Blot"
INDEX 00 05:30:65
FILE "03 How Could I Know.wav" WAVE
INDEX 01 00:00:00
TRACK 04 AUDIO
TITLE "Nothing Like A Woman"
PERFORMER "Blue Blot"
INDEX 00 04:03:02
FILE "04 Nothing Like A Woman.wav" WAVE
INDEX 01 00:00:00
TRACK 05 AUDIO
TITLE "Damn You Woman"
PERFORMER "Blue Blot"
INDEX 00 05:39:25
FILE "05 Damn You Woman.wav" WAVE
INDEX 01 00:00:00
TRACK 06 AUDIO
TITLE "So Thankful For Your Love"
PERFORMER "Blue Blot"
INDEX 00 03:49:58
FILE "06 So Thankful For Your Love.wav" WAVE
INDEX 01 00:00:00
TRACK 07 AUDIO
TITLE "You Can't Get That Stuff No More"
PERFORMER "Blue Blot"
INDEX 00 03:54:25
FILE "07 You Can't Get That Stuff No More.wav" WAVE
INDEX 01 00:00:00
FILE "08 Angel.flac" WAVE
TRACK 08 AUDIO
TITLE "Angel"
PERFORMER "Blue Blot"
INDEX 01 00:00:00
FILE "09 Put Some Rhythm In My Blues.wav" WAVE
TRACK 09 AUDIO
TITLE "Put Some Rhythm In My Blues"
PERFORMER "Blue Blot"
INDEX 01 00:00:00
TRACK 10 AUDIO
TITLE "With You In Mind"
PERFORMER "Blue Blot"
INDEX 00 03:00:10
FILE "10 With You In Mind.wav" WAVE
INDEX 01 00:00:00
TRACK 11 AUDIO
TITLE "Closing In On The Fire"
PERFORMER "Blue Blot"
INDEX 00 04:20:58
FILE "11 Closing In On The Fire.wav" WAVE
INDEX 01 00:00:00
TRACK 12 AUDIO
TITLE "W.H.Y. (W.H.O.)"
PERFORMER "Blue Blot"
INDEX 00 04:01:50
FILE "12 W.H.Y. (W.H.O.).wav" WAVE
INDEX 01 00:00:00
TRACK 13 AUDIO
TITLE "Joe & Emily"
PERFORMER "Blue Blot"
INDEX 00 02:38:02
FILE "13 Joe & Emily.wav" WAVE
INDEX 01 00:00:00
TRACK 14 AUDIO
TITLE "Stone Junky"
PERFORMER "Blue Blot"
INDEX 00 02:45:35
FILE "14 Stone Junky.wav" WAVE
INDEX 01 00:00:00

Лог проверки качества

-----------------------
DON'T MODIFY THIS FILE
-----------------------
PERFORMER: auCDtect Task Manager, ver. 1.5.1RC4 build 1.5.1.5
Copyright (c) 2008-2010 y-soft. All rights reserved
http://y-soft.org
ANALYZER: auCDtect: CD records authenticity detector, version 0.8.2
Copyright (c) 2004 Oleg Berngardt. All rights reserved.
Copyright (c) 2004 Alexander Djourik. All rights reserved.
FILE: 14 Stone Junky.flac
Size: 39697193 Hash: 03CB8CE50A49B4DC9A4C84C9F67872B1 Accuracy: -m0
Conclusion: CDDA 100%
Signature: 969472D2958D0F5F8D1887D6B7182E70E6464775
FILE: 13 Joe & Emily.flac
Size: 19110742 Hash: EB82EE93F093BDF631F1B63B4713A05F Accuracy: -m0
Conclusion: CDDA 100%
Signature: EE5649D08354C222454990B0D26F3D73D9BCF317
FILE: 12 W.H.Y. (W.H.O.).flac
Size: 17972411 Hash: 024126EAFCEA09201557402BB5FA60E5 Accuracy: -m0
Conclusion: CDDA 100%
Signature: 0E26320B93301936682DDBD493B8EDD0D96E7996
FILE: 11 Closing In On The Fire.flac
Size: 25313629 Hash: D17FB1486D8D3FF7B9A7FB6F132F8FF1 Accuracy: -m0
Conclusion: CDDA 100%
Signature: 4AAFD2D2194E6C3DFD9B2AFEF5B098EEC97A5DCE
FILE: 10 With You In Mind.flac
Size: 26256794 Hash: 0042DC81C7880F3F09DA828BF10E7C1B Accuracy: -m0
Conclusion: CDDA 99%
Signature: C9A7301D99316FACAE22626729FDBD6B3CF2764B
FILE: 09 Put Some Rhythm In My Blues.flac
Size: 20317633 Hash: F5C3A3417865180CC09B7A8982E4D1AC Accuracy: -m0
Conclusion: CDDA 100%
Signature: 0E272BAF51CB217C0EEA8C4CC7214CCDD46007D7
FILE: 08 Angel.flac
Size: 33573161 Hash: 65618A0F65FB9BFD47118CA1FF1A6A6F Accuracy: -m0
Conclusion: CDDA 100%
Signature: 205F78822F969480C82F530B76EEA4496FBF03C7
FILE: 07 You Can't Get That Stuff No More.flac
Size: 29097796 Hash: 313E2CA7BA2D52BA207BC92E939C7BE7 Accuracy: -m0
Conclusion: CDDA 100%
Signature: 0DF0C4B6538B8DDD68288DEC028F42B07F4DF5D6
FILE: 06 So Thankful For Your Love.flac
Size: 24284602 Hash: 1F9039CADEB814C32F3D3ABAE45AFBEA Accuracy: -m0
Conclusion: CDDA 100%
Signature: 1E662FBF4A2DE26139C9A156108B398368ADAF1D
FILE: 05 Damn You Woman.flac
Size: 26847363 Hash: C7F4E1EAA6D858EB8A5112EF7BBB3D38 Accuracy: -m0
Conclusion: CDDA 100%
Signature: 18644F82624A3EF98AA6793AA6642FBF4BA2556E
FILE: 04 Nothing Like A Woman.flac
Size: 34158155 Hash: C524E97C570040E8805F10848FC42409 Accuracy: -m0
Conclusion: CDDA 100%
Signature: B3603696224151982CD22AB75C2C99A043444EA2
FILE: 03 How Could I Know.flac
Size: 26475150 Hash: ED2EAEF04BF1B7D1DC398A7BE11E0D16 Accuracy: -m0
Conclusion: CDDA 100%
Signature: 7591207654EC6F2AE24CAFE48DA1D4BD1B04A51F
FILE: 02 Gone Love You My Own Way.flac
Size: 36328847 Hash: 5151F40661F1F606A87DBAB4B4E7937A Accuracy: -m0
Conclusion: CDDA 100%
Signature: 968A7BBA99D2E3FA3C3C676CBA0B2C5EA21EB9A3
FILE: 01 Yo Yo Man.flac
Size: 29049046 Hash: 1975FF9095C65F1A3CAEE6B633A591BB Accuracy: -m0
Conclusion: CDDA 100%
Signature: E86076AA7E94C457981F56E0C7BD0F8B8EF08332

CUETools log

[CUETools log; Date: 21.10.2013 12:52:06; Version: 2.1.4]
[CTDB TOCID: 7X2FMtlxZvkfdSgdEBOFJ9PSc.c-] found.
Track | CTDB Status
1 | (7/7) Accurately ripped
2 | (7/7) Accurately ripped
3 | (7/7) Accurately ripped
4 | (7/7) Accurately ripped
5 | (7/7) Accurately ripped
6 | (7/7) Accurately ripped
7 | (7/7) Accurately ripped
8 | (7/7) Accurately ripped
9 | (7/7) Accurately ripped
10 | (7/7) Accurately ripped
11 | (7/7) Accurately ripped
12 | (7/7) Accurately ripped
13 | (7/7) Accurately ripped
14 | (7/7) Accurately ripped
[AccurateRip ID: 001fbe8f-014ed23c-cf0e1c0e] found.
Track [ CRC | V2 ] Status
01 [733ae817|6407cc11] (0+8/8) Accurately ripped
02 [a58f1016|1d1448b8] (0+8/8) Accurately ripped
03 [f50b21f8|b208ecd3] (0+8/8) Accurately ripped
04 [7f97215f|9a2129b0] (0+8/8) Accurately ripped
05 [2bca5828|64e30797] (0+8/8) Accurately ripped
06 [01f29ed4|cd6bb63d] (0+8/8) Accurately ripped
07 [415d0c2a|0d664ed6] (0+8/8) Accurately ripped
08 [cc66c0bf|3755fd02] (0+8/8) Accurately ripped
09 [d3cb9867|3bbe89c9] (0+8/8) Accurately ripped
10 [7bf8688e|445b7c53] (0+8/8) Accurately ripped
11 [3999adf0|f9ec8fb9] (0+8/8) Accurately ripped
12 [73941bd4|511157c8] (0+8/8) Accurately ripped
13 [62778626|34e476c1] (0+8/8) Accurately ripped
14 [839ec407|11aafb1a] (0+8/8) Accurately ripped
Track Peak [ CRC32 ] [W/O NULL] [ LOG ]
-- 100,0 [6CC2B84D] [BEDFE94A]
01 100,0 [5C2BC758] [CDA43F80] CRC32
02 99,9 [B091DA49] [7548E61F] CRC32
03 93,8 [7DA8E00C] [75F96188] CRC32
04 100,0 [64460F63] [B396FB87] CRC32
05 97,1 [C4339527] [AF0C681B] CRC32
06 85,2 [E12CD939] [916E5C7F] CRC32
07 96,0 [9C936D12] [BF4E20B7] CRC32
08 98,9 [BE0AF7C4] [48FF36FC] CRC32
09 100,0 [7196BAB7] [C7DCDC0E] CRC32
10 100,0 [7916DAC6] [F21085FF] CRC32
11 100,0 [CFBF097E] [82BDF420] CRC32
12 100,0 [15BDB5B6] [86D0B83E] CRC32
13 100,0 [AB6F2361] [19C05CDC] CRC32
14 100,0 [474ADB58] [B853A02F] CRC32
Доп. информация

Состав

Lead Vocals – Luke Walter Jr.
Bass – Jan Meyers
Organ [Hammond], Piano, Piano [Electric], Accordion – Peter Van Bogaert* (tracks: 1 to 10, 12 to 14)
Percussion – Eddie Conard (tracks: 1 to 10, 12 to 14)
Drums – Michel Moliterno (tracks: 1 to 10, 12 to 14)
Saxophone [Tenor], Saxophone [Alto], Flute – Lenny Northover
Trombone – Carlo Mertens (tracks: 1 to 10, 12 to 14)
Trumpet – Eric Verhaegen (tracks: 1 to 10, 12 to 14)
Backing Vocals – Carlo Mertens (tracks: 1 to 10, 12 to 14), Catherine M.* (tracks: 1 to 10, 12 to 14), Lenny Northover, Marty Townsend

Об исполнителе

Belgian blues/funk band, originally based around lead singer and founder Luke Walter Jr. After quite a few years of success however he got diagnosed having leukemia and eventually died of it in 1996. The band continued on with lead singer Steve Clisby, but their success was no longer the same and they eventually got split up. In 2000 several original band members got back together joined by a new singer, Tony O'Malley, to present a "Best Of" album and since then they have given several concerts around Belgium.

Back, Disc, Spectrogram

Яндекс.Метрика
Рейтинг@Mail.ru