Две женщины (Вера Глаголева) [2014 г., драма, WEBRip]

 

Создавать темы 26-Янв-2015 04:20

-Две женщины- Производство: Россия, Франция, Латвия, Великобритания / Film Base Berlin, Хорошо Продакшн
Режиссер: Вера Глаголева
Жанр: драма
Год выпуска: 2014 г.
Продолжительность: 01:38:15
Мировая премьера: 23 ноября 2014
Российская премьера: 22 января 2015, «Парадиз»
В ролях: Анна Астраханцева, Рэйф Файнс, Александр Балуев, Сильви Тестю, Никита Волков, Анна Леванова, Лариса Малеванная, Бернд Мосс, Сергей Юшкевич, Василий Мищенко-Описание: Волевая молодая женщина состоит в браке с крупным землевладельцем. Но однажды она безответно влюбляется в наставника собственного сына.-Сэмпл КиноПоиск
Качество видео: WEBRip
Контейнер: AVI
Видео кодек: XviD
Аудио кодек: AC3
Видео: 720x384 (1.88:1), 25 fps, XviD build 50 ~1789 kbps avg, 0.26 bit/pixel
Аудио: 48 kHz, AC3 Dolby Digital, 2/0 (L,R) ch, ~192 kbps
Cубтитры: отсутствуют

Media Info

General
Complete name : ...\Dve.Genschini.2014.WEBRip_[pirat.ca].avi
Format : AVI
Format/Info : Audio Video Interleave
File size : 1.37 GiB
Duration : 1h 38mn
Overall bit rate : 1 992 Kbps
Writing application : VirtualDubMod 1.5.10.2 (build 2540/release)
Writing library : VirtualDubMod build 2540/release
Video
ID : 0
Format : MPEG-4 Visual
Format profile : Advanced [email protected]
Format settings, BVOP : 2
Format settings, QPel : No
Format settings, GMC : No warppoints
Format settings, Matrix : Default (MPEG)
Codec ID : XVID
Codec ID/Hint : XviD
Duration : 1h 38mn
Bit rate : 1 790 Kbps
Width : 720 pixels
Height : 384 pixels
Display aspect ratio : 1.85:1
Frame rate : 25.000 fps
Color space : YUV
Chroma subsampling : 4:2:0
Bit depth : 8 bits
Scan type : Progressive
Compression mode : Lossy
Bits/(Pixel*Frame) : 0.259
Stream size : 1.23 GiB (90%)
Writing library : XviD 1.2.1 (UTC 2008-12-04)
Audio
ID : 1
Format : AC-3
Format/Info : Audio Coding 3
Mode extension : CM (complete main)
Format settings, Endianness : Big
Codec ID : 2000
Duration : 1h 38mn
Bit rate mode : Constant
Bit rate : 192 Kbps
Channel(s) : 2 channels
Channel positions : Front: L R
Sampling rate : 48.0 KHz
Bit depth : 16 bits
Compression mode : Lossy
Stream size : 135 MiB (10%)
Alignment : Split accross interleaves
Interleave, duration : 40 ms (1.00 video frame)
Interleave, preload duration : 500 ms

Скриншот c названием фильма

Скриншоты

Яндекс.Метрика
Рейтинг@Mail.ru