Начало / Внедрение / Зарождение / Inception (Кристофер Нолан / Christopher Nolan) [2010 г., Фантастика, боевик, триллер, драма, детектив, BDRip, 720p] VO (Нурмухаметов, Рапсодов, Замез) + AVO (Гаврилов, Сербин) + Original (Eng) + Sub (Rus, Eng)

 

Создавать темы 26-Янв-2015 04:16

Начало / Внедрение / Зарождение / Inception Год выпуска: 2010
Производство: США, Великобритания / Warner Bros., Legendary Pictures, Syncopy
Жанр: Фантастика, боевик, триллер, драма, детектив
Продолжительность: 02:28:07
Перевод #1: Любительский (одноголосый, закадровый) Данис Нурмухаметов, Севат Рапсодов, Вячеслав Замез
Перевод #2: Авторский (одноголосый, закадровый) Андрей Гаврилов, Юрий Сербин
Оригинальный аудиопоток: английский
Субтитры: Русские [Данис Нурмухаметов] (полные), Русские [Евгений Воронин] (форсированные, полные, SDH), Русские [Blu-ray CEE] (форсир., полные), Английские (полные, SDH).
Режиссер: Кристофер Нолан / Christopher Nolan
В ролях: Леонардо ДиКаприо, Джозеф Гордон-Левитт, Эллен Пейдж, Том Харди, Кен Ватанабе, Дилип Рао, Киллиан Мёрфи, Том Беренджер, Марион Котийяр, Пит Постлетуэйт, Майкл Кейн
Описание: Кобб - талантливый вор, лучший из лучших в опасном искусстве извлечения: он крадет ценные секреты из глубин подсознания во время сна, когда человеческий разум наиболее уязвим. Редкие способности Кобба сделали его ценным игроком в привычном к предательству мире промышленного шпионажа, но они же превратили его в извечного беглеца и лишили всего, что он когда-либо любил.
И вот у Кобба появляется шанс исправить ошибки. Его последнее дело может вернуть все назад, но для этого ему нужно совершить невозможное - инициацию. Вместо идеальной кражи Кобб и его команда спецов должны будут провернуть обратное. Теперь их задача - не украсть идею, а внедрить ее. Если у них получится, это и станет идеальным преступлением.
Но никакое планирование или мастерство не могут подготовить команду к встрече с опасным противником, который, кажется, предугадывает каждый их ход. Врагом, увидеть которого мог бы лишь Кобб.
Сэмпл, , КиноПоиск
Качество видео: BDRip
Контейнер: MKV
Стандарт разрешения: 720p
Видео кодек: H.264
Аудио кодек: AC3
Видео: AVC, 1280x534 (2.40:1), 23.976 fps, 2956 kbps avg, 0.176 bit/pixel
Аудио №1 : 48 kHz, AC3 Dolby Digital, 3/2 (L,C,R,l,r) + LFE ch, ~448.00 kbps avg - Нурмухаметов
Аудио №2: 48 kHz, AC3 Dolby Digital, 3/2 (L,C,R,l,r) + LFE ch, ~448.00 kbps avg - Рапсодов
Аудио №3: 48 kHz, AC3 Dolby Digital, 3/2 (L,C,R,l,r) + LFE ch, ~448.00 kbps avg - Zamez
Аудио №4: 48 kHz, AC3 Dolby Digital, 3/2 (L,C,R,l,r) + LFE ch, ~448.00 kbps avg - Гаврилов
Аудио №5: 48 kHz, AC3 Dolby Digital, 3/2 (L,C,R,l,r) + LFE ch, ~448.00 kbps avg - Сербин
Аудио №6: 48 kHz, AC3 Dolby Digital, 3/2 (L,C,R,l,r) + LFE ch, ~448.00 kbps avg - Оригинал
Формат субтитров: softsub (SRT)

Доп.информация

Гаврилов с голоса, спасибо dunhill200, за Сербина urban92, за сборку обоих дорог - спасибо edsz.
Перевод Нурмухаметова наложен самим автором перевода.
Рип, дороги и субтитры: найдены в сети.
Автор рипа: -=LEONARDO=-

Media Info

Общее
Уникальный идентификатор : 230252514659541177235379782294084963432 (0xAD3905724CC2416487CB84388556CC68)
Полное имя : D:\Начало\Inception.2010.BDRip.720p.5xRus.Eng.Subs.mkv
Формат : Matroska
Версия формата : Version 4 / Version 2
Размер файла : 5,84 Гбайт
Продолжительность : 2 ч. 28 м.
Общий поток : 5648 Кбит/сек
Название фильма : -=LEONARDO=-
Дата кодирования : UTC 2015-01-24 20:17:00
Программа кодирования : mkvmerge v7.1.0 ('Good Love') 64bit built on Jul 27 2014 13:06:55
Библиотека кодирования : libebml v1.3.0 + libmatroska v1.4.1
_STATISTICS_WRITING_APP : mkvmerge v7.1.0 ('Good Love') 64bit built on Jul 27 2014 13:06:55
_STATISTICS_WRITING_DATE_UTC : 2015-01-24 20:17:00
_STATISTICS_TAGS : BPS DURATION NUMBER_OF_FRAMES NUMBER_OF_BYTES
DURATION : 02:26:30.709000000
NUMBER_OF_FRAMES : 1614
NUMBER_OF_BYTES : 97107
Видео
Идентификатор : 1
Формат : AVC
Формат/Информация : Advanced Video Codec
Профиль формата : [email protected]
Параметр CABAC формата : Да
Параметр ReFrames формата : 8 кадров
Идентификатор кодека : V_MPEG4/ISO/AVC
Продолжительность : 2 ч. 28 м.
Битрейт : 2848 Кбит/сек
Ширина : 1280 пикселей
Высота : 534 пикселя
Соотношение сторон : 2,40:1
Режим частоты кадров : Постоянный
Частота кадров : 23,976 кадра/сек
Цветовое пространство : YUV
Субдискретизация насыщенности : 4:2:0
Битовая глубина : 8 бит
Тип развёртки : Прогрессивная
Бит/(Пиксели*Кадры) : 0.174
Размер потока : 2,95 Гбайт (50%)
Заголовок : Rip by LEONARDO
Библиотека кодирования : x264 core 125 r2208 d9d2288
Настройки программы : cabac=1 / ref=8 / deblock=1:-3:-3 / analyse=0x3:0x133 / me=umh / subme=11 / psy=1 / psy_rd=1.00:0.20 / mixed_ref=1 / me_range=32 / chroma_me=1 / trellis=2 / 8x8dct=1 / cqm=0 / deadzone=21,11 / fast_pskip=0 / chroma_qp_offset=-3 / threads=12 / lookahead_threads=2 / sliced_threads=0 / nr=0 / decimate=1 / interlaced=0 / bluray_compat=0 / constrained_intra=0 / bframes=8 / b_pyramid=2 / b_adapt=2 / b_bias=0 / direct=1 / weightb=1 / open_gop=0 / weightp=2 / keyint=250 / keyint_min=23 / scenecut=40 / intra_refresh=0 / rc=crf / mbtree=0 / crf=18.0 / qcomp=0.60 / qpmin=0 / qpmax=69 / qpstep=4 / ip_ratio=1.40 / pb_ratio=1.30 / aq=2:1.00
Язык : English
Default : Да
Forced : Нет
_STATISTICS_WRITING_APP : mkvmerge v7.1.0 ('Good Love') 64bit built on Jul 27 2014 13:06:55
_STATISTICS_WRITING_DATE_UTC : 2015-01-24 20:17:00
_STATISTICS_TAGS : BPS DURATION NUMBER_OF_FRAMES NUMBER_OF_BYTES
DURATION : 02:28:07.963000000
NUMBER_OF_FRAMES : 213098
NUMBER_OF_BYTES : 3284110286
Аудио #1
Идентификатор : 2
Формат : AC-3
Формат/Информация : Audio Coding 3
Расширение режима : CM (complete main)
Параметр Endianness формата : Big
Идентификатор кодека : A_AC3
Продолжительность : 2 ч. 28 м.
Вид битрейта : Постоянный
Битрейт : 448 Кбит/сек
Каналы : 6 каналов
Расположение каналов : Front: L C R, Side: L R, LFE
Частота : 48,0 КГц
Битовая глубина : 16 бит
Метод сжатия : С потерями
Размер потока : 475 Мбайт (8%)
Заголовок : Любительский (одноголосый, закадровый) [Данис Нурмухаметов]
Язык : Russian
Default : Да
Forced : Нет
Аудио #2
Идентификатор : 3
Формат : AC-3
Формат/Информация : Audio Coding 3
Расширение режима : CM (complete main)
Параметр Endianness формата : Big
Идентификатор кодека : A_AC3
Продолжительность : 2 ч. 28 м.
Вид битрейта : Постоянный
Битрейт : 448 Кбит/сек
Каналы : 6 каналов
Расположение каналов : Front: L C R, Side: L R, LFE
Частота : 48,0 КГц
Битовая глубина : 16 бит
Метод сжатия : С потерями
Размер потока : 475 Мбайт (8%)
Заголовок : Любительский (одноголосый, закадровый) [Севат Рапсодов]
Язык : Russian
Default : Нет
Forced : Нет
Аудио #3
Идентификатор : 4
Формат : AC-3
Формат/Информация : Audio Coding 3
Расширение режима : CM (complete main)
Параметр Endianness формата : Big
Идентификатор кодека : A_AC3
Продолжительность : 2 ч. 28 м.
Вид битрейта : Постоянный
Битрейт : 448 Кбит/сек
Каналы : 6 каналов
Расположение каналов : Front: L C R, Side: L R, LFE
Частота : 48,0 КГц
Битовая глубина : 16 бит
Метод сжатия : С потерями
Размер потока : 475 Мбайт (8%)
Заголовок : Любительский (одноголосый, закадровый) [Вячеслав Замез] по переводу Notabenoid
Язык : Russian
Default : Нет
Forced : Нет
Аудио #4
Идентификатор : 5
Формат : AC-3
Формат/Информация : Audio Coding 3
Расширение режима : CM (complete main)
Параметр Endianness формата : Big
Идентификатор кодека : A_AC3
Продолжительность : 2 ч. 28 м.
Вид битрейта : Постоянный
Битрейт : 448 Кбит/сек
Каналы : 6 каналов
Расположение каналов : Front: L C R, Side: L R, LFE
Частота : 48,0 КГц
Битовая глубина : 16 бит
Метод сжатия : С потерями
Размер потока : 475 Мбайт (8%)
Заголовок : Авторский (одноголосый, закадровый) [Андрей Гаврилов]
Язык : Russian
Default : Нет
Forced : Нет
Аудио #5
Идентификатор : 6
Формат : AC-3
Формат/Информация : Audio Coding 3
Расширение режима : CM (complete main)
Параметр Endianness формата : Big
Идентификатор кодека : A_AC3
Продолжительность : 2 ч. 28 м.
Вид битрейта : Постоянный
Битрейт : 448 Кбит/сек
Каналы : 6 каналов
Расположение каналов : Front: L C R, Side: L R, LFE
Частота : 48,0 КГц
Битовая глубина : 16 бит
Метод сжатия : С потерями
Размер потока : 475 Мбайт (8%)
Заголовок : Авторский (одноголосый, закадровый) [Юрий Сербин]
Язык : Russian
Default : Нет
Forced : Нет
Аудио #6
Идентификатор : 7
Формат : AC-3
Формат/Информация : Audio Coding 3
Расширение режима : CM (complete main)
Параметр Endianness формата : Big
Идентификатор кодека : A_AC3
Продолжительность : 2 ч. 28 м.
Вид битрейта : Постоянный
Битрейт : 448 Кбит/сек
Каналы : 6 каналов
Расположение каналов : Front: L C R, Side: L R, LFE
Частота : 48,0 КГц
Битовая глубина : 16 бит
Метод сжатия : С потерями
Размер потока : 475 Мбайт (8%)
Заголовок : Оригинал
Язык : English
Default : Нет
Forced : Нет
Текст #1
Идентификатор : 8
Формат : UTF-8
Идентификатор кодека : S_TEXT/UTF8
Идентификатор кодека/Информация : UTF-8 Plain Text
Заголовок : Данис Нурмухаметов
Язык : Russian
Default : Да
Forced : Нет
Текст #2
Идентификатор : 9
Формат : UTF-8
Идентификатор кодека : S_TEXT/UTF8
Идентификатор кодека/Информация : UTF-8 Plain Text
Заголовок : Евгений Воронин
Язык : Russian
Default : Нет
Forced : Нет
Текст #3
Идентификатор : 10
Формат : UTF-8
Идентификатор кодека : S_TEXT/UTF8
Идентификатор кодека/Информация : UTF-8 Plain Text
Заголовок : Blu-ray CEE
Язык : Russian
Default : Нет
Forced : Нет
Текст #4
Идентификатор : 11
Формат : UTF-8
Идентификатор кодека : S_TEXT/UTF8
Идентификатор кодека/Информация : UTF-8 Plain Text
Заголовок : Евгений Воронин [Форсированные]
Язык : Russian
Default : Нет
Forced : Нет
Текст #5
Идентификатор : 12
Формат : UTF-8
Идентификатор кодека : S_TEXT/UTF8
Идентификатор кодека/Информация : UTF-8 Plain Text
Заголовок : Blu-ray CEE [Форсированные]
Язык : Russian
Default : Нет
Forced : Нет
Текст #6
Идентификатор : 13
Формат : UTF-8
Идентификатор кодека : S_TEXT/UTF8
Идентификатор кодека/Информация : UTF-8 Plain Text
Заголовок : Евгений Воронин [SDH]
Язык : Russian
Default : Нет
Forced : Нет
Текст #7
Идентификатор : 14
Формат : UTF-8
Идентификатор кодека : S_TEXT/UTF8
Идентификатор кодека/Информация : UTF-8 Plain Text
Заголовок : English [SDH]
Язык : English
Default : Нет
Forced : Нет
Текст #8
Идентификатор : 15
Формат : UTF-8
Идентификатор кодека : S_TEXT/UTF8
Идентификатор кодека/Информация : UTF-8 Plain Text
Заголовок : English
Язык : English
Default : Нет
Forced : Нет
Меню
00:00:00.000 : :Chapter 01
00:11:41.740 : :Chapter 02
00:21:37.336 : :Chapter 03
00:31:20.335 : :Chapter 04
00:41:22.228 : :Chapter 05
00:51:13.737 : :Chapter 06
01:01:21.552 : :Chapter 07
01:10:29.680 : :Chapter 08
01:22:15.595 : :Chapter 09
01:31:52.590 : :Chapter 10
01:40:38.532 : :Chapter 11
01:51:22.175 : :Chapter 12
02:00:54.412 : :Chapter 13
02:10:09.051 : :Chapter 14
02:20:55.444 : :Chapter 15
02:28:07.709 : :Chapter 16

log x.264

x264 [info]: frame I:2027 Avg QP:15.28 size: 87929
x264 [info]: frame P:49344 Avg QP:17.17 size: 31598
x264 [info]: frame B:161727 Avg QP:20.08 size: 9564
x264 [info]: consecutive B-frames: 3.2% 3.0% 10.9% 16.7% 24.2% 34.7% 4.8% 1.3% 1.1%
x264 [info]: mb I I16..4: 12.9% 63.9% 23.2%
x264 [info]: mb P I16..4: 1.3% 10.7% 2.3% P16..4: 29.9% 35.4% 10.5% 2.8% 0.4% skip: 6.7%
x264 [info]: mb B I16..4: 0.1% 1.2% 0.2% B16..8: 37.2% 18.8% 2.2% direct: 3.8% skip:36.5% L0:39.1% L1:46.5% BI:14.4%
x264 [info]: 8x8 transform intra:73.6% inter:48.0%
x264 [info]: coded y,uvDC,uvAC intra: 88.7% 72.9% 44.7% inter: 18.2% 9.7% 0.8%
x264 [info]: i16 v,h,dc,p: 18% 8% 11% 63%
x264 [info]: i8 v,h,dc,ddl,ddr,vr,hd,vl,hu: 14% 9% 7% 9% 12% 12% 12% 12% 13%
x264 [info]: i4 v,h,dc,ddl,ddr,vr,hd,vl,hu: 18% 7% 5% 9% 13% 13% 12% 10% 12%
x264 [info]: i8c dc,h,v,p: 31% 33% 21% 15%
x264 [info]: Weighted P-Frames: Y:11.0% UV:5.1%
x264 [info]: ref P L0: 48.6% 8.6% 21.0% 6.6% 5.6% 3.6% 3.4% 1.9% 0.5% 0.1%
x264 [info]: ref B L0: 82.9% 9.6% 3.5% 1.8% 1.2% 0.7% 0.3%
x264 [info]: ref B L1: 95.4% 4.6%
x264 [info]: kb/s:2956.01

Скриншоты

Яндекс.Метрика
Рейтинг@Mail.ru