Всем хана! / Disaster! (Рой Ти Вуд / Roy T. Wood) [2005 г., мультфильм, комедия, DVDRip-AVC] AVO (Карповский) + Dub (Гоблин, Бачинский, Стиллавин) + original (Eng)

 

Создавать темы 26-Янв-2015 04:12

Всем хана! / Disaster!
Год выпуска: 2005
Производство: США
Жанр: мультфильм, комедия
Продолжительность: 01:20:04
Перевод: Авторский (одноголосый, закадровый) Антон Карповский
Перевод: Профессиональный (полное дублирование) Гоблин, Бачинский, Стиллавин
Оригинальный аудиопоток: английский
Субтитры: отсутствуют
Режиссер: Рой Ти Вуд / Roy T. Wood
В ролях: Джим Каммингс, Гленн Моршауэр, Дэнни Манн, Джинн Елиас, Исаак С. Синглтон мл., Мэтт Салливан
Описание: Если астероид со славным именем Шон Коннери все-таки доберется до Земли, на нашей планете не останется в живых никого. Даже бактерий. Человечество может спасти только команда супер-профессионалов, состоящая из порнозвезды, робота-гея, грудастой блондинки и других, не менее колоритных персонажей. Под мудрым руководством парализованного ученого им предстоит бросить вызов громадной каменюке, угрожающей жизни ни в чем не повинных бактерий.
Сэмпл , IMDB , КиноПоиск
Качество видео: DVDRip-AVC
Контейнер: MKV
Видео кодек: H.264
Аудио кодек: AC3
Видео: 720x400, 25.000fps, 2686Kbps, 0.3730.326 bt/px
Аудио : AC-3, 192 Kbps, 2 ch, 48.0 KHz Rus Карповский
Аудио : AC-3, 448 Kbps, 6 ch, 48.0 KHz Rus DUB Гоблин, Бачинский, Стиллавин
Аудио : AC-3, 448 Kbps, 6 ch, 48.0 KHz Eng Original

Media Info

G:\загрузки\Disasrer_[Pirat.ca].torrent.mkv.mkv
General
Unique ID : 234310797200884525855106820338929170297 (0xB0469E3953BFE78781E33A8055C4F779)
Complete name : G:\загрузки\Disasrer_[Pirat.ca].torrent.mkv.mkv
Format : Matroska
Format version : Version 1
File size : 2.15 GiB
Duration : 1h 20mn
Overall bit rate : 3 851 Kbps
Encoded date : UTC 2015-01-16 08:22:27
Writing application : mkvmerge v2.5.3 ('Boogie') built on Mar 7 2009 15:00:41
Writing library : libebml v0.7.7 + libmatroska v0.8.1
Video #1
ID : 1
Format : AVC
Format/Info : Advanced Video Codec
Format profile : [email protected]
Format settings, CABAC : Yes
Format settings, ReFrames : 9 frames
Codec ID : V_MPEG4/ISO/AVC
Duration : 1h 20mn
Bit rate : 2 686 Kbps
Width : 720 pixels
Height : 400 pixels
Display aspect ratio : 16:9
Frame rate mode : Constant
Frame rate : 25.000 fps
Color space : YUV
Chroma subsampling : 4:2:0
Bit depth : 8 bits
Scan type : Progressive
Bits/(Pixel*Frame) : 0.373
Stream size : 1.50 GiB (70%)
Writing library : x264 core 130 r2273 b3065e6
Encoding settings : cabac=1 / ref=9 / deblock=1:-3:-3 / analyse=0x3:0x133 / me=umh / subme=11 / psy=1 / psy_rd=1.00:0.15 / mixed_ref=1 / me_range=24 / chroma_me=1 / trellis=2 / 8x8dct=1 / cqm=0 / deadzone=21,11 / fast_pskip=1 / chroma_qp_offset=-3 / threads=6 / lookahead_threads=1 / sliced_threads=0 / nr=0 / decimate=1 / interlaced=0 / bluray_compat=0 / constrained_intra=0 / bframes=8 / b_pyramid=2 / b_adapt=2 / b_bias=0 / direct=1 / weightb=1 / open_gop=0 / weightp=2 / keyint=250 / keyint_min=25 / scenecut=40 / intra_refresh=0 / rc_lookahead=50 / rc=crf / mbtree=1 / crf=16.0 / qcomp=0.60 / qpmin=0 / qpmax=51 / qpstep=4 / ip_ratio=1.40 / aq=1:1.00
Language : English
Default : Yes
Forced : No
Audio #2
ID : 2
Format : AC-3
Format/Info : Audio Coding 3
Mode extension : CM (complete main)
Format settings, Endianness : Big
Codec ID : A_AC3
Duration : 1h 20mn
Bit rate mode : Constant
Bit rate : 192 Kbps
Channel(s) : 2 channels
Channel positions : Front: L R
Sampling rate : 48.0 KHz
Bit depth : 16 bits
Compression mode : Lossy
Stream size : 110 MiB (5%)
Title : AVO Карповский
Language : Russian
Default : Yes
Forced : No
Audio #3
ID : 3
Format : AC-3
Format/Info : Audio Coding 3
Mode extension : CM (complete main)
Format settings, Endianness : Big
Codec ID : A_AC3
Duration : 1h 20mn
Bit rate mode : Constant
Bit rate : 448 Kbps
Channel(s) : 6 channels
Channel positions : Front: L C R, Side: L R, LFE
Sampling rate : 48.0 KHz
Bit depth : 16 bits
Compression mode : Lossy
Stream size : 257 MiB (12%)
Title : DUB Гоблин, Бачинский, Стиллавин
Language : Russian
Default : No
Forced : No
Audio #4
ID : 4
Format : AC-3
Format/Info : Audio Coding 3
Mode extension : CM (complete main)
Format settings, Endianness : Big
Codec ID : A_AC3
Duration : 1h 20mn
Bit rate mode : Constant
Bit rate : 448 Kbps
Channel(s) : 6 channels
Channel positions : Front: L C R, Side: L R, LFE
Sampling rate : 48.0 KHz
Bit depth : 16 bits
Compression mode : Lossy
Stream size : 257 MiB (12%)
Language : English
Default : No
Forced : No

Скриншоты

Яндекс.Метрика
Рейтинг@Mail.ru