Бегущая мишень / Moving Target (Дэмиан Ли / Damian Lee) [1996 г., Боевик, триллер, HDRip-AVC] AVO (Александр Кашкин) + MVO + original (Eng)

 

Создавать темы 26-Янв-2015 04:11

Бегущая мишень / Moving Target
Год выпуска: 1996
Производство: США, Канада
Жанр: Боевик, триллер
Продолжительность: 01:28:50
Перевод: Авторский (одноголосый, закадровый) Александр Кашкин
Перевод: Профессиональный (многоголосый, закадровый)
Оригинальный аудиопоток: английский
Субтитры: отсутствуют
Режиссер: Дэмиан Ли / Damian Lee
В ролях: Майкл Дудикофф, Ардон Бесс, Мишель Джонсон, Билли Ди Уильямс, Том Харви, Ноам Дженкинс, Лен Дончефф, Патрик Галлахер, Питер Борецки, Майкл Бернардо
Описание: Безденежье толкает обыкновенного работягу Майкла в темный мир организованной преступности. Сначала он выполняет мелкие поручения мафии, но наконец-то ему поручили серьезное дело. Майкл и его партнер должны доставить крупную партию денег в Бруклин.
Но по дороге приятели тратят часть денег на девочек, в надежде, что это пройдет незамеченным. Но бандиты обнаруживают недостачу и курьеров превращают в живые мишени. Впрочем, за ними охотится и полиция, которая следит за бандой.
, КиноПоиск
Качество видео: HDRip-AVC
Контейнер: MKV
Видео кодек: H.264
Аудио кодек: AC3
Видео: 720x400, 24.000fps, 965Kbps, 0.140 bt/px
Аудио : AC-3, 192 Kbps, 2 ch, 48.0 KHz Rus Кашкин
Аудио : AC-3, 192 Kbps, 2 ch, 48.0 KHz Rus MVO
Аудио : AC-3, 192 Kbps, 2 ch, 48.0 KHz Eng Original

Доп. информация

HD рип сделан с BDRIP 1080P найденного в сети, за дорогу Кашкина говорим спасибо ochkarik1.

Media Info

G:\загрузки\Moving_Target_[Pirat.ca].torrent.mkv
General
Unique ID : 253521312366694626307935561592806350055 (0xBEBA6DBF7669EE6AA919228A1AE49CE7)
Complete name : G:\загрузки\Moving_Target_[Pirat.ca].torrent.mkv
Format : Matroska
Format version : Version 1
File size : 999 MiB
Duration : 1h 28mn
Overall bit rate : 1 573 Kbps
Encoded date : UTC 2015-01-24 18:07:41
Writing application : mkvmerge v2.5.3 ('Boogie') built on Mar 7 2009 15:00:41
Writing library : libebml v0.7.7 + libmatroska v0.8.1
Video #1
ID : 1
Format : AVC
Format/Info : Advanced Video Codec
Format profile : [email protected]
Format settings, CABAC : Yes
Format settings, ReFrames : 9 frames
Codec ID : V_MPEG4/ISO/AVC
Duration : 1h 28mn
Bit rate : 965 Kbps
Width : 720 pixels
Height : 400 pixels
Display aspect ratio : 16:9
Frame rate mode : Constant
Frame rate : 24.000 fps
Color space : YUV
Chroma subsampling : 4:2:0
Bit depth : 8 bits
Scan type : Progressive
Bits/(Pixel*Frame) : 0.140
Stream size : 613 MiB (61%)
Writing library : x264 core 130 r2273 b3065e6
Encoding settings : cabac=1 / ref=9 / deblock=1:0:0 / analyse=0x3:0x133 / me=umh / subme=11 / psy=1 / psy_rd=1.00:0.10 / mixed_ref=1 / me_range=24 / chroma_me=1 / trellis=2 / 8x8dct=1 / cqm=0 / deadzone=21,11 / fast_pskip=1 / chroma_qp_offset=-3 / threads=6 / lookahead_threads=1 / sliced_threads=0 / nr=0 / decimate=1 / interlaced=0 / bluray_compat=0 / constrained_intra=0 / bframes=8 / b_pyramid=2 / b_adapt=2 / b_bias=0 / direct=1 / weightb=1 / open_gop=0 / weightp=2 / keyint=250 / keyint_min=23 / scenecut=40 / intra_refresh=0 / rc=crf / mbtree=0 / crf=18.0 / qcomp=0.60 / qpmin=0 / qpmax=51 / qpstep=4 / ip_ratio=1.40 / pb_ratio=1.30 / aq=1:1.00
Language : English
Default : Yes
Forced : No
Audio #2
ID : 2
Format : AC-3
Format/Info : Audio Coding 3
Mode extension : CM (complete main)
Format settings, Endianness : Big
Codec ID : A_AC3
Duration : 1h 28mn
Bit rate mode : Constant
Bit rate : 192 Kbps
Channel(s) : 2 channels
Channel positions : Front: L R
Sampling rate : 48.0 KHz
Bit depth : 16 bits
Compression mode : Lossy
Stream size : 122 MiB (12%)
Title : AVO Кашкин
Language : Russian
Default : Yes
Forced : No
Audio #3
ID : 3
Format : AC-3
Format/Info : Audio Coding 3
Mode extension : CM (complete main)
Format settings, Endianness : Big
Codec ID : A_AC3
Duration : 1h 28mn
Bit rate mode : Constant
Bit rate : 192 Kbps
Channel(s) : 2 channels
Channel positions : Front: L R
Sampling rate : 48.0 KHz
Bit depth : 16 bits
Compression mode : Lossy
Stream size : 122 MiB (12%)
Title : MVO
Language : Russian
Default : No
Forced : No
Audio #4
ID : 4
Format : AC-3
Format/Info : Audio Coding 3
Mode extension : CM (complete main)
Format settings, Endianness : Big
Codec ID : A_AC3
Duration : 1h 28mn
Bit rate mode : Constant
Bit rate : 192 Kbps
Channel(s) : 2 channels
Channel positions : Front: L R
Sampling rate : 48.0 KHz
Bit depth : 16 bits
Compression mode : Lossy
Stream size : 122 MiB (12%)
Language : English
Default : No
Forced : No

log x.264

x264 [info]: frame I:1049  Avg QP:16.60  size: 30309
x264 [info]: frame P:31722 Avg QP:18.26 size: 10424
x264 [info]: frame B:95153 Avg QP:21.52 size: 3145
x264 [info]: consecutive B-frames: 2.5% 3.9% 10.9% 41.9% 15.4% 18.0% 3.5% 2.6% 1.3%
x264 [info]: mb I I16..4: 7.9% 75.1% 17.1%
x264 [info]: mb P I16..4: 1.2% 12.7% 1.9% P16..4: 31.2% 33.9% 10.9% 1.8% 0.2% skip: 6.0%
x264 [info]: mb B I16..4: 0.2% 1.6% 0.2% B16..8: 34.6% 19.2% 2.6% direct: 4.2% skip:37.4% L0:37.7% L1:46.1% BI:16.2%
x264 [info]: 8x8 transform intra:80.1% inter:61.1%
x264 [info]: coded y,uvDC,uvAC intra: 87.8% 62.8% 25.0% inter: 16.3% 10.1% 0.8%
x264 [info]: i16 v,h,dc,p: 23% 9% 6% 63%
x264 [info]: i8 v,h,dc,ddl,ddr,vr,hd,vl,hu: 13% 11% 6% 8% 11% 12% 12% 13% 14%
x264 [info]: i4 v,h,dc,ddl,ddr,vr,hd,vl,hu: 16% 10% 3% 8% 15% 15% 13% 10% 10%
x264 [info]: i8c dc,h,v,p: 25% 32% 22% 20%
x264 [info]: Weighted P-Frames: Y:8.2% UV:3.0%
x264 [info]: ref P L0: 50.7% 12.2% 17.7% 5.3% 4.5% 3.2% 2.9% 1.5% 1.6% 0.3% 0.0%
x264 [info]: ref B L0: 82.2% 9.0% 3.6% 1.8% 1.4% 1.2% 0.6% 0.2%
x264 [info]: ref B L1: 94.9% 5.1%
x264 [info]: kb/s:993.20
x264 [total]: encoded 127924 frames, 6.29 fps, 993.20 kb/s

Скриншоты

Яндекс.Метрика
Рейтинг@Mail.ru