Дракула / Dracula Untold (Гари Шор / Gary Shore) [2014 г., ужасы, фэнтези, боевик, драма, военный, BDRip-AVC] Dub (BD EUR) + Original (Eng) + Sub (Rus, Ukr, Eng)

 

Создавать темы 26-Янв-2015 04:10

-Дракула / Dracula Untold-«Легенда обретёт бессмертие»- Производство: США / Legendary Pictures, Michael De Luca Productions, Universal Pictures
Год выпуска: 2014 г.
Жанр: ужасы, фэнтези, боевик, драма, военный
Продолжительность: 01:32:08
Мировая премьера: 1 октября 2014
Российская премьера: 9 октября 2014, «UPI»
Дата выхода DVD: 12 февраля 2015, «Двадцатый Век Фокс СНГ»
Дата выхода Blu-Ray: 12 февраля 2015, «Двадцатый Век Фокс СНГ»
Перевод: Профессиональный (полное дублирование) [BD EUR]
Оригинальный аудиопоток: английский-Режиссер: Гари Шор / Gary Shore
В ролях: Люк Эванс, Сара Гадон, Доминик Купер, Арт Паркинсон, Чарльз Дэнс, Дайармейд Мерта, Пол Кэй, Уильям Хьюстон, Ной Хантли, Ронан Вайберт-Описание: Влад Дракула был величайшим правителем, доблестным воином и страстным мужчиной. Но судьба свела его с врагом, коварство которого не знало границ. И тогда Дракула заключил сделку — нечеловеческая сила в обмен на самую малость — бессмертную душу…- -Качество видео: BDRip-AVC
Контейнер: MKV
Видео кодек: MPEG-4 AVC
Аудио кодек: AC3
Видео: 1152x480 (2.40:1), 23.976 fps, ~2228 kbps avg, 0.168 bit/pixel
Аудио: 48 kHz, AC3 Dolby Digital, 3/2 (L,C,R,l,r) + LFE ch, ~448 kbps avg - Rus
Аудио #2: 48 kHz, AC3 Dolby Digital, 3/2 (L,C,R,l,r) + LFE ch, ~448 kbps avg - Eng
Cубтитры: Русские (полные х2, форсированные), украинские (полные, форсированные), английские (полные, форсированные, полные SDH, полные SDH цветные)
Главы: присутствуют, сохранены оригинальные

Media Info

General
Unique ID : 192794624358215407183572222166986246347 (0x910AE4DE49977D968CE7D5C7B3ADC8CB)
Complete name : D:\Dracula.Untold.2014.DUAL.BDRip-AVC.mkv
Format : Matroska
Format version : Version 2
File size : 2.05 GiB
Duration : 1h 32mn
Overall bit rate : 3 187 Kbps
Encoded date : UTC 2015-01-24 15:24:52
Writing application : mkvmerge v5.2.0 ('I can't explain') built on Dec 18 2011 18:12:03
Writing library : libebml v1.2.3 + libmatroska v1.3.0
Attachements : Cover.jpg
Video
ID : 1
Format : AVC
Format/Info : Advanced Video Codec
Format profile : [email protected]
Format settings, CABAC : Yes
Format settings, ReFrames : 14 frames
Codec ID : V_MPEG4/ISO/AVC
Duration : 1h 32mn
Bit rate : 2 228 Kbps
Width : 1 152 pixels
Height : 480 pixels
Display aspect ratio : 2.40:1
Frame rate mode : Constant
Frame rate : 23.976 fps
Color space : YUV
Chroma subsampling : 4:2:0
Bit depth : 8 bits
Scan type : Progressive
Bits/(Pixel*Frame) : 0.168
Stream size : 1.43 GiB (70%)
Writing library : x264 core 144 r2525kMod 40bb568
Encoding settings : cabac=1 / ref=14 / deblock=1:-3:-2 / analyse=0x3:0x133 / me=umh / subme=11 / psy=1 / fade_compensate=0.00 / psy_rd=0.95:0.00 / mixed_ref=1 / me_range=32 / chroma_me=1 / trellis=2 / 8x8dct=1 / cqm=0 / deadzone=21,11 / fast_pskip=0 / chroma_qp_offset=-4 / threads=6 / lookahead_threads=1 / sliced_threads=0 / nr=0 / decimate=1 / interlaced=0 / bluray_compat=0 / constrained_intra=0 / fgo=0 / bframes=14 / b_pyramid=2 / b_adapt=2 / b_bias=0 / direct=1 / weightb=1 / open_gop=0 / weightp=2 / keyint=230 / keyint_min=23 / scenecut=40 / intra_refresh=0 / rc_lookahead=40 / rc=crf / mbtree=0 / crf=19.2000 / qcomp=0.70 / qpmin=0 / qpmax=69 / qpstep=4 / vbv_maxrate=50000 / vbv_bufsize=62500 / crf_max=0.0 / nal_hrd=none / filler=0 / ip_ratio=1.40 / pb_ratio=1.30 / aq=2:0.90 / zones=125013,132548,b=0.24
Language : English
Default : Yes
Forced : No
Audio #1
ID : 2
Format : AC-3
Format/Info : Audio Coding 3
Mode extension : CM (complete main)
Format settings, Endianness : Big
Codec ID : A_AC3
Duration : 1h 32mn
Bit rate mode : Constant
Bit rate : 448 Kbps
Channel(s) : 6 channels
Channel positions : Front: L C R, Side: L R, LFE
Sampling rate : 48.0 KHz
Bit depth : 16 bits
Compression mode : Lossy
Stream size : 295 MiB (14%)
Title : АС3 5.1 @ 448 kbps - Dub, BD EUR
Language : Russian
Default : No
Forced : No
Audio #2
ID : 3
Format : AC-3
Format/Info : Audio Coding 3
Mode extension : CM (complete main)
Format settings, Endianness : Big
Codec ID : A_AC3
Duration : 1h 32mn
Bit rate mode : Constant
Bit rate : 448 Kbps
Channel(s) : 6 channels
Channel positions : Front: L C R, Side: L R, LFE
Sampling rate : 48.0 KHz
Bit depth : 16 bits
Compression mode : Lossy
Stream size : 295 MiB (14%)
Title : АС3 5.1 @ 448 kbps - Original
Language : English
Default : No
Forced : No
Text #1
ID : 4
Format : UTF-8
Codec ID : S_TEXT/UTF8
Codec ID/Info : UTF-8 Plain Text
Title : Full v.1
Language : Russian
Default : No
Forced : No
Text #2
ID : 5
Format : UTF-8
Codec ID : S_TEXT/UTF8
Codec ID/Info : UTF-8 Plain Text
Title : Full v.2
Language : Russian
Default : No
Forced : No
Text #3
ID : 6
Format : UTF-8
Codec ID : S_TEXT/UTF8
Codec ID/Info : UTF-8 Plain Text
Title : Forced
Language : Russian
Default : No
Forced : No
Text #4
ID : 7
Format : UTF-8
Codec ID : S_TEXT/UTF8
Codec ID/Info : UTF-8 Plain Text
Title : Full
Language : Ukrainian
Default : No
Forced : No
Text #5
ID : 8
Format : UTF-8
Codec ID : S_TEXT/UTF8
Codec ID/Info : UTF-8 Plain Text
Title : Forced
Language : Ukrainian
Default : No
Forced : No
Text #6
ID : 9
Format : UTF-8
Codec ID : S_TEXT/UTF8
Codec ID/Info : UTF-8 Plain Text
Title : Full
Language : English
Default : No
Forced : No
Text #7
ID : 10
Format : UTF-8
Codec ID : S_TEXT/UTF8
Codec ID/Info : UTF-8 Plain Text
Title : Forced
Language : English
Default : No
Forced : No
Text #8
ID : 11
Format : UTF-8
Codec ID : S_TEXT/UTF8
Codec ID/Info : UTF-8 Plain Text
Title : Full SDH
Language : English
Default : No
Forced : No
Text #9
ID : 12
Format : UTF-8
Codec ID : S_TEXT/UTF8
Codec ID/Info : UTF-8 Plain Text
Title : Full SDH Colored
Language : English
Default : No
Forced : No
Menu
00:00:00.000 : :Chapter 01
00:04:07.288 : :Chapter 02
00:07:20.565 : :Chapter 03
00:11:32.817 : :Chapter 04
00:16:30.698 : :Chapter 05
00:22:53.663 : :Chapter 06
00:30:23.446 : :Chapter 07
00:34:16.763 : :Chapter 08
00:38:57.043 : :Chapter 09
00:43:00.369 : :Chapter 10
00:47:03.737 : :Chapter 11
00:53:16.735 : :Chapter 12
00:57:39.831 : :Chapter 13
01:00:47.310 : :Chapter 14
01:04:30.032 : :Chapter 15
01:09:12.189 : :Chapter 16
01:12:47.613 : :Chapter 17
01:17:11.877 : :Chapter 18
01:21:52.657 : :Chapter 19
01:25:02.555 : :Chapter 20
01:32:08.147 : :Chapter 21

Скриншоты

Яндекс.Метрика
Рейтинг@Mail.ru