[ Сегодня на трекере фрилич! Идет свободное скачивание без начисления Download ]

(New Age, Ambient) Enya - Limited Edition CD Set [7 CD Remastered] - 2015 [FLAC, tracks+.cue, lossless]

 

Создавать темы 26-Янв-2015 04:09

-Enya - Limited Edition CD Set [7 CD Remastered]--
Год издания: 2015
Страна: Ireland
Жанр: New Age, Ambient
Продолжительность: 06:30:28-Лейбл издания: Chinese Dragon Music
Номер по каталогу: ECCD-RME1401-407
Формат: FLAC
Битрейт аудио: lossless
Тип рипа: tracks+.cue
Наличие сканов в содержимом раздачи: да(арты)-Трэклист:

CD 1: ENYA - 1987(1992) - Enya , The Celts (LE RM 2015) 00:48:19

01. Enya - The Celts (2:56)
02. Enya - Aldebaran (3:05)
03. Enya - I Want Tomorrow (4:02)
04. Enya - March of the Celts (3:16)
05. Enya - Deireadh An Tuath (1:43)
06. Enya - The Sun In The Stream (2:56)
07. Enya - To Go Beyond (I) (1:21)
08. Enya - Fairytale (3:03)
09. Enya - Epona (1:36)
10. Enya - Triad: St. Patrick, Cu Chulainn, Oisin (4:24)
11. Enya - Portrait (Out Of The Blue) (3:11)
12. Enya - Boadicea (3:30)
13. Enya - Bard Dance (1:23)
14. Enya - Dan y Dwr (1:41)
15. Enya - To Go Beyond (II) (3:01)
Bonus Tracks
16. Enya - Dreams (From The Frog Prince OST) (3:34)
17. Enya - The Frog Prince (From The Frog Prince OST) (3:15)

Лог создания рипа

Exact Audio Copy V0.99 prebeta 5 from 4. May 2009
EAC extraction logfile from 11. January 2015, 21:31
Enya / Enya - The Celts
Used drive  : LITE-ON DVDRW SHM-165S6S   Adapter: 1  ID: 0
Read mode               : Secure
Utilize accurate stream : Yes
Defeat audio cache      : Yes
Make use of C2 pointers : No
Read offset correction                      : 6
Overread into Lead-In and Lead-Out          : No
Fill up missing offset samples with silence : Yes
Delete leading and trailing silent blocks   : No
Null samples used in CRC calculations       : Yes
Used interface                              : Installed external ASPI interface
Gap handling                                : Appended to previous track
Used output format : Internal WAV Routines
Sample format      : 44.100 Hz; 16 Bit; Stereo
TOC of the extracted CD
Track |   Start  |  Length  | Start sector | End sector
---------------------------------------------------------
1  |  0:00.00 |  2:57.42 |         0    |    13316
2  |  2:57.42 |  3:05.58 |     13317    |    27249
3  |  6:03.25 |  4:02.18 |     27250    |    45417
4  | 10:05.43 |  3:17.50 |     45418    |    60242
5  | 13:23.18 |  1:44.43 |     60243    |    68085
6  | 15:07.61 |  2:55.65 |     68086    |    81275
7  | 18:03.51 |  1:21.45 |     81276    |    87395
8  | 19:25.21 |  3:04.47 |     87396    |   101242
9  | 22:29.68 |  1:37.23 |    101243    |   108540
10  | 24:07.16 |  4:25.20 |    108541    |   128435
11  | 28:32.36 |  3:12.50 |    128436    |   142885
12  | 31:45.11 |  3:32.27 |    142886    |   158812
13  | 35:17.38 |  1:24.68 |    158813    |   165180
14  | 36:42.31 |  1:42.62 |    165181    |   172892
15  | 38:25.18 |  3:02.68 |    172893    |   186610
16  | 41:28.11 |  3:35.00 |    186611    |   202735
17  | 45:03.11 |  3:15.35 |    202736    |   217395
Track  1
Filename E:\dmp_\Enya - 1992 - Enya - The Celts\01 - The Celts.wav
Pre-gap length  0:00:02.00
Peak level 95.5 %
Track quality 100.0 %
Test CRC 97E6F893
Copy CRC 97E6F893
Copy OK
Track  2
Filename E:\dmp_\Enya - 1992 - Enya - The Celts\02 - Aldebaran.wav
Pre-gap length  0:00:01.40
Peak level 91.5 %
Track quality 100.0 %
Test CRC A4381437
Copy CRC A4381437
Copy OK
Track  3
Filename E:\dmp_\Enya - 1992 - Enya - The Celts\03 - I Want Tomorrow.wav
Pre-gap length  0:00:00.36
Peak level 85.8 %
Track quality 100.0 %
Test CRC 25C27B20
Copy CRC 25C27B20
Copy OK
Track  4
Filename E:\dmp_\Enya - 1992 - Enya - The Celts\04 - March of the Celts.wav
Pre-gap length  0:00:00.23
Peak level 78.5 %
Track quality 100.0 %
Test CRC ABE157A3
Copy CRC ABE157A3
Copy OK
Track  5
Filename E:\dmp_\Enya - 1992 - Enya - The Celts\05 - Deireadh an Tuath.wav
Pre-gap length  0:00:01.21
Peak level 81.0 %
Track quality 100.0 %
Test CRC 3CA16795
Copy CRC 3CA16795
Copy OK
Track  6
Filename E:\dmp_\Enya - 1992 - Enya - The Celts\06 - The Sun in the Stream.wav
Pre-gap length  0:00:01.19
Peak level 87.0 %
Track quality 100.0 %
Test CRC B2C00115
Copy CRC B2C00115
Copy OK
Track  7
Filename E:\dmp_\Enya - 1992 - Enya - The Celts\07 - To go Beyond (I).wav
Pre-gap length  0:00:00.40
Peak level 78.5 %
Track quality 100.0 %
Test CRC 7E2BFA7B
Copy CRC 7E2BFA7B
Copy OK
Track  8
Filename E:\dmp_\Enya - 1992 - Enya - The Celts\08 - Fairytale.wav
Pre-gap length  0:00:01.16
Peak level 89.3 %
Track quality 99.9 %
Test CRC 677EFE8D
Copy CRC 677EFE8D
Copy OK
Track  9
Filename E:\dmp_\Enya - 1992 - Enya - The Celts\09 - Epona.wav
Pre-gap length  0:00:01.51
Peak level 92.3 %
Track quality 100.0 %
Test CRC 2BF8DB0E
Copy CRC 2BF8DB0E
Copy OK
Track 10
Filename E:\dmp_\Enya - 1992 - Enya - The Celts\10 - Triad- St. Patrick, Cu Chulainn, Oisin.wav
Pre-gap length  0:00:01.53
Peak level 85.2 %
Track quality 100.0 %
Test CRC E03E3EAB
Copy CRC E03E3EAB
Copy OK
Track 11
Filename E:\dmp_\Enya - 1992 - Enya - The Celts\11 - Portrait (Out of the Blue).wav
Pre-gap length  0:00:01.21
Peak level 92.0 %
Track quality 100.0 %
Test CRC FB32DC1D
Copy CRC FB32DC1D
Copy OK
Track 12
Filename E:\dmp_\Enya - 1992 - Enya - The Celts\12 - Boadicea.wav
Pre-gap length  0:00:01.55
Peak level 84.6 %
Track quality 100.0 %
Test CRC 22AFCF6D
Copy CRC 22AFCF6D
Copy OK
Track 13
Filename E:\dmp_\Enya - 1992 - Enya - The Celts\13 - Bard Dance.wav
Pre-gap length  0:00:01.54
Peak level 96.5 %
Track quality 100.0 %
Test CRC 31AACC35
Copy CRC 31AACC35
Copy OK
Track 14
Filename E:\dmp_\Enya - 1992 - Enya - The Celts\14 - Dan y Dwr.wav
Pre-gap length  0:00:01.58
Peak level 74.6 %
Track quality 100.0 %
Test CRC A8350FCA
Copy CRC A8350FCA
Copy OK
Track 15
Filename E:\dmp_\Enya - 1992 - Enya - The Celts\15 - To Go Beyond (II).wav
Pre-gap length  0:00:01.44
Peak level 78.0 %
Track quality 100.0 %
Test CRC E1A7FB01
Copy CRC E1A7FB01
Copy OK
Track 16
Filename E:\dmp_\Enya - 1992 - Enya - The Celts\16 - Dreams (from The Frog Prince OST).wav
Pre-gap length  0:00:02.01
Peak level 86.6 %
Track quality 100.0 %
Test CRC 16CACCB0
Copy CRC 16CACCB0
Copy OK
Track 17
Filename E:\dmp_\Enya - 1992 - Enya - The Celts\17 - The Frog Prince (from The Frog Prince OST).wav
Pre-gap length  0:00:01.01
Peak level 83.5 %
Track quality 100.0 %
Test CRC 1848476E
Copy CRC 1848476E
Copy OK
No errors occurred
End of status report

Индексная карта (non-compilant .cue)

REM GENRE "New Age"
REM DATE 1992
REM DISCID E20B5211
REM COMMENT "ExactAudioCopy v0.99pb5"
PERFORMER "Enya"
TITLE "Enya - The Celts"
FILE "01 - The Celts.flac" WAVE
TRACK 01 AUDIO
TITLE "The Celts"
PERFORMER "Enya"
INDEX 01 00:00:00
TRACK 02 AUDIO
TITLE "Aldebaran"
PERFORMER "Enya"
INDEX 00 02:56:02
FILE "02 - Aldebaran.flac" WAVE
INDEX 01 00:00:00
TRACK 03 AUDIO
TITLE "I Want Tomorrow"
PERFORMER "Enya"
INDEX 00 03:05:22
FILE "03 - I Want Tomorrow.flac" WAVE
INDEX 01 00:00:00
TRACK 04 AUDIO
TITLE "March of the Celts"
PERFORMER "Enya"
INDEX 00 04:01:70
FILE "04 - March of the Celts.flac" WAVE
INDEX 01 00:00:00
TRACK 05 AUDIO
TITLE "Deireadh an Tuath"
PERFORMER "Enya"
INDEX 00 03:16:29
FILE "05 - Deireadh an Tuath.flac" WAVE
INDEX 01 00:00:00
TRACK 06 AUDIO
TITLE "The Sun in the Stream"
PERFORMER "Enya"
INDEX 00 01:43:24
FILE "06 - The Sun in the Stream.flac" WAVE
INDEX 01 00:00:00
TRACK 07 AUDIO
TITLE "To go Beyond (I)"
PERFORMER "Enya"
INDEX 00 02:55:25
FILE "07 - To go Beyond (I).flac" WAVE
INDEX 01 00:00:00
TRACK 08 AUDIO
TITLE "Fairytale"
PERFORMER "Enya"
INDEX 00 01:20:29
FILE "08 - Fairytale.flac" WAVE
INDEX 01 00:00:00
TRACK 09 AUDIO
TITLE "Epona"
PERFORMER "Enya"
INDEX 00 03:02:71
FILE "09 - Epona.flac" WAVE
INDEX 01 00:00:00
TRACK 10 AUDIO
TITLE "Triad: St. Patrick, Cu Chulainn, Oisin"
PERFORMER "Enya"
INDEX 00 01:35:45
FILE "10 - Triad- St. Patrick, Cu Chulainn, Oisin.flac" WAVE
INDEX 01 00:00:00
TRACK 11 AUDIO
TITLE "Portrait (Out of the Blue)"
PERFORMER "Enya"
INDEX 00 04:23:74
FILE "11 - Portrait (Out of the Blue).flac" WAVE
INDEX 01 00:00:00
TRACK 12 AUDIO
TITLE "Boadicea"
PERFORMER "Enya"
INDEX 00 03:10:70
FILE "12 - Boadicea.flac" WAVE
INDEX 01 00:00:00
TRACK 13 AUDIO
TITLE "Bard Dance"
PERFORMER "Enya"
INDEX 00 03:30:48
FILE "13 - Bard Dance.flac" WAVE
INDEX 01 00:00:00
TRACK 14 AUDIO
TITLE "Dan y Dwr"
PERFORMER "Enya"
INDEX 00 01:23:10
FILE "14 - Dan y Dwr.flac" WAVE
INDEX 01 00:00:00
TRACK 15 AUDIO
TITLE "To Go Beyond (II)"
PERFORMER "Enya"
INDEX 00 01:41:18
FILE "15 - To Go Beyond (II).flac" WAVE
INDEX 01 00:00:00
TRACK 16 AUDIO
TITLE "Dreams (from The Frog Prince OST)"
PERFORMER "Enya"
INDEX 00 03:00:67
FILE "16 - Dreams (from The Frog Prince OST).flac" WAVE
INDEX 01 00:00:00
TRACK 17 AUDIO
TITLE "The Frog Prince (from The Frog Prince OST)"
PERFORMER "Enya"
INDEX 00 03:33:74
FILE "17 - The Frog Prince (from The Frog Prince OST).flac" WAVE
INDEX 01 00:00:00

CD 2: ENYA - 1988 - Watermark (LE RM 2015) 00:52:33

01. Enya - Watermark (2:25)
02. Enya - Cursum Perficio (4:07)
03. Enya - On Your Shore (3:58)
04. Enya - Storms in Africa (4:03)
05. Enya - Exile (4:20)
06. Enya - Miss Clare Remembers (1:57)
07. Enya - Orinoco Flow (4:25)
08. Enya - Evening Falls (3:46)
09. Enya - River (3:10)
10. Enya - The Long Ships (3:36)
11. Enya - Na Laetha Geal M'Oige (3:54)
Bonus Tracks
12. Enya - Out Of The Blue (6 Tracks EP) (3:10)
13. Enya - Morning Glory (6 Tracks EP) (2:26)
14. Enya - Oiche Chiun (Silent Night) (6 Tracks EP) (3:45)
15. Enya - Storms In Africa (Part II) (Single) (3:01)

Лог создания рипа

Exact Audio Copy V0.99 prebeta 5 from 4. May 2009
EAC extraction logfile from 8. January 2015, 16:52
Enya / Watermark
Used drive  : LITE-ON DVDRW SHM-165S6S   Adapter: 1  ID: 0
Read mode               : Secure
Utilize accurate stream : Yes
Defeat audio cache      : Yes
Make use of C2 pointers : No
Read offset correction                      : 6
Overread into Lead-In and Lead-Out          : No
Fill up missing offset samples with silence : Yes
Delete leading and trailing silent blocks   : No
Null samples used in CRC calculations       : Yes
Used interface                              : Installed external ASPI interface
Gap handling                                : Appended to previous track
Used output format : Internal WAV Routines
Sample format      : 44.100 Hz; 16 Bit; Stereo
TOC of the extracted CD
Track |   Start  |  Length  | Start sector | End sector
---------------------------------------------------------
1  |  0:00.00 |  2:26.30 |         0    |    10979
2  |  2:26.30 |  4:09.22 |     10980    |    29676
3  |  6:35.52 |  4:00.13 |     29677    |    47689
4  | 10:35.65 |  4:04.57 |     47690    |    66046
5  | 14:40.47 |  4:21.63 |     66047    |    85684
6  | 19:02.35 |  1:59.50 |     85685    |    94659
7  | 21:02.10 |  4:26.27 |     94660    |   114636
8  | 25:28.37 |  3:49.10 |    114637    |   131821
9  | 29:17.47 |  3:11.68 |    131822    |   146214
10  | 32:29.40 |  3:39.15 |    146215    |   162654
11  | 36:08.55 |  3:56.10 |    162655    |   180364
12  | 40:04.65 |  3:11.30 |    180365    |   194719
13  | 43:16.20 |  2:28.07 |    194720    |   205826
14  | 45:44.27 |  3:47.12 |    205827    |   222863
15  | 49:31.39 |  3:00.68 |    222864    |   236431
Track  1
Filename E:\dmp_\Enya - 1988 - Watermark\01 - Watermark.wav
Pre-gap length  0:00:02.00
Peak level 86.9 %
Track quality 100.0 %
Test CRC 725F3252
Copy CRC 725F3252
Copy OK
Track  2
Filename E:\dmp_\Enya - 1988 - Watermark\02 - Cursum Perficio.wav
Pre-gap length  0:00:00.59
Peak level 96.0 %
Track quality 100.0 %
Test CRC 30FF94F2
Copy CRC 30FF94F2
Copy OK
Track  3
Filename E:\dmp_\Enya - 1988 - Watermark\03 - On Your Shore.wav
Pre-gap length  0:00:02.43
Peak level 67.3 %
Track quality 100.0 %
Test CRC 4B8DA68A
Copy CRC 4B8DA68A
Copy OK
Track  4
Filename E:\dmp_\Enya - 1988 - Watermark\04 - Storms in Africa.wav
Pre-gap length  0:00:02.39
Peak level 97.7 %
Track quality 100.0 %
Test CRC 20CF6FD8
Copy CRC 20CF6FD8
Copy OK
Track  5
Filename E:\dmp_\Enya - 1988 - Watermark\05 - Exile.wav
Pre-gap length  0:00:02.33
Peak level 88.0 %
Track quality 100.0 %
Test CRC 560EF60F
Copy CRC 560EF60F
Copy OK
Track  6
Filename E:\dmp_\Enya - 1988 - Watermark\06 - Miss Clare Remembers.wav
Pre-gap length  0:00:01.69
Peak level 83.9 %
Track quality 100.0 %
Test CRC 0F20FB5A
Copy CRC 0F20FB5A
Copy OK
Track  7
Filename E:\dmp_\Enya - 1988 - Watermark\07 - Orinoco Flow.wav
Pre-gap length  0:00:02.46
Peak level 91.5 %
Track quality 100.0 %
Test CRC E1AF2CBF
Copy CRC E1AF2CBF
Copy OK
Track  8
Filename E:\dmp_\Enya - 1988 - Watermark\08 - Evening Falls.wav
Pre-gap length  0:00:01.33
Peak level 89.9 %
Track quality 99.9 %
Test CRC 55BF8970
Copy CRC 55BF8970
Copy OK
Track  9
Filename E:\dmp_\Enya - 1988 - Watermark\09 - River.wav
Pre-gap length  0:00:03.12
Peak level 75.8 %
Track quality 100.0 %
Test CRC AC483A30
Copy CRC AC483A30
Copy OK
Track 10
Filename E:\dmp_\Enya - 1988 - Watermark\10 - The Long Ships.wav
Pre-gap length  0:00:02.39
Peak level 96.6 %
Track quality 100.0 %
Test CRC 197CBA7D
Copy CRC 197CBA7D
Copy OK
Track 11
Filename E:\dmp_\Enya - 1988 - Watermark\11 - Na Laetha Geal M'Oige.wav
Pre-gap length  0:00:02.56
Peak level 68.5 %
Track quality 100.0 %
Test CRC F72FB203
Copy CRC F72FB203
Copy OK
Track 12
Filename E:\dmp_\Enya - 1988 - Watermark\12 - Out Of The Blue (6 Tracks EP).wav
Pre-gap length  0:00:02.00
Peak level 96.5 %
Track quality 100.0 %
Test CRC 829F0869
Copy CRC 829F0869
Copy OK
Track 13
Filename E:\dmp_\Enya - 1988 - Watermark\13 - Morning Glory (6 Tracks EP).wav
Pre-gap length  0:00:02.01
Peak level 86.9 %
Track quality 100.0 %
Test CRC 4BC0969B
Copy CRC 4BC0969B
Copy OK
Track 14
Filename E:\dmp_\Enya - 1988 - Watermark\14 - Oiche Chiun (Silent Night) (6 Tracks EP).wav
Pre-gap length  0:00:02.00
Peak level 71.4 %
Track quality 100.0 %
Test CRC 0A20A522
Copy CRC 0A20A522
Copy OK
Track 15
Filename E:\dmp_\Enya - 1988 - Watermark\15 - Storms In Africa (Part II) (Single).wav
Pre-gap length  0:00:02.00
Peak level 96.1 %
Track quality 100.0 %
Test CRC 9737B46B
Copy CRC 9737B46B
Copy OK
No errors occurred
End of status report

Индексная карта (non-compilant .cue)

REM GENRE "New Age"
REM DATE 1988
REM DISCID E00C500F
REM COMMENT "ExactAudioCopy v0.99pb5"
PERFORMER "Enya"
TITLE "Watermark"
FILE "01 - Watermark.flac" WAVE
TRACK 01 AUDIO
TITLE "Watermark"
PERFORMER "Enya"
INDEX 01 00:00:00
TRACK 02 AUDIO
TITLE "Cursum Perficio"
PERFORMER "Enya"
INDEX 00 02:25:46
FILE "02 - Cursum Perficio.flac" WAVE
INDEX 01 00:00:00
TRACK 03 AUDIO
TITLE "On Your Shore"
PERFORMER "Enya"
INDEX 00 04:06:54
FILE "03 - On Your Shore.flac" WAVE
INDEX 01 00:00:00
TRACK 04 AUDIO
TITLE "Storms in Africa"
PERFORMER "Enya"
INDEX 00 03:57:49
FILE "04 - Storms in Africa.flac" WAVE
INDEX 01 00:00:00
TRACK 05 AUDIO
TITLE "Exile"
PERFORMER "Enya"
INDEX 00 04:02:24
FILE "05 - Exile.flac" WAVE
INDEX 01 00:00:00
TRACK 06 AUDIO
TITLE "Miss Clare Remembers"
PERFORMER "Enya"
INDEX 00 04:19:69
FILE "06 - Miss Clare Remembers.flac" WAVE
INDEX 01 00:00:00
TRACK 07 AUDIO
TITLE "Orinoco Flow"
PERFORMER "Enya"
INDEX 00 01:57:04
FILE "07 - Orinoco Flow.flac" WAVE
INDEX 01 00:00:00
TRACK 08 AUDIO
TITLE "Evening Falls"
PERFORMER "Enya"
INDEX 00 04:24:69
FILE "08 - Evening Falls.flac" WAVE
INDEX 01 00:00:00
TRACK 09 AUDIO
TITLE "River"
PERFORMER "Enya"
INDEX 00 03:45:73
FILE "09 - River.flac" WAVE
INDEX 01 00:00:00
TRACK 10 AUDIO
TITLE "The Long Ships"
PERFORMER "Enya"
INDEX 00 03:09:29
FILE "10 - The Long Ships.flac" WAVE
INDEX 01 00:00:00
TRACK 11 AUDIO
TITLE "Na Laetha Geal M'Oige"
PERFORMER "Enya"
INDEX 00 03:36:34
FILE "11 - Na Laetha Geal M'Oige.flac" WAVE
INDEX 01 00:00:00
TRACK 12 AUDIO
TITLE "Out Of The Blue (6 Tracks EP)"
PERFORMER "Enya"
INDEX 00 03:54:10
FILE "12 - Out Of The Blue (6 Tracks EP).flac" WAVE
INDEX 01 00:00:00
TRACK 13 AUDIO
TITLE "Morning Glory (6 Tracks EP)"
PERFORMER "Enya"
INDEX 00 03:09:29
FILE "13 - Morning Glory (6 Tracks EP).flac" WAVE
INDEX 01 00:00:00
TRACK 14 AUDIO
TITLE "Oiche Chiun (Silent Night) (6 Tracks EP)"
PERFORMER "Enya"
INDEX 00 02:26:07
FILE "14 - Oiche Chiun (Silent Night) (6 Tracks EP).flac" WAVE
INDEX 01 00:00:00
TRACK 15 AUDIO
TITLE "Storms In Africa (Part II) (Single)"
PERFORMER "Enya"
INDEX 00 03:45:12
FILE "15 - Storms In Africa (Part II) (Single).flac" WAVE
INDEX 01 00:00:00

CD 3: ENYA - 1991 - Shepherd Moons (LE RM 2015) 00:56:55

01. Enya - Shepherd Moons (3:42)
02. Enya - Caribbean Blue (3:58)
03. Enya - How Can I Keep From Singing? (4:23)
04. Enya - Ebudae (1:54)
05. Enya - Angeles (3:58)
06. Enya - No Holly For Miss Quinn (2:41)
07. Enya - Book Of Days (2:55)
08. Enya - Evacuee (3:49)
09. Enya - Lothlorien (2:08)
10. Enya - Marble Halls (3:53)
11. Enya - Afer Ventus (4:05)
12. Enya - Smaointe (6:06)
Bonus Tracks
13. Enya - Oriel Window (B-Side Caribbean Blue) (2:20)
14. Enya - 'S Fagain Mo Bhaile (B-Side How Can I Keep From Singing) (3:56)
15. Enya - As Baile (B-Side Book of Days) (4:04)
16. Enya - Book of Days (Gaelic Version) (2:34)

Лог создания рипа

Exact Audio Copy V0.99 prebeta 5 from 4. May 2009
EAC extraction logfile from 10. January 2015, 21:41
Enya / Shepherd Moons
Used drive  : LITE-ON DVDRW SHM-165S6S   Adapter: 1  ID: 0
Read mode               : Secure
Utilize accurate stream : Yes
Defeat audio cache      : Yes
Make use of C2 pointers : No
Read offset correction                      : 6
Overread into Lead-In and Lead-Out          : No
Fill up missing offset samples with silence : Yes
Delete leading and trailing silent blocks   : No
Null samples used in CRC calculations       : Yes
Used interface                              : Installed external ASPI interface
Gap handling                                : Appended to previous track
Used output format : Internal WAV Routines
Sample format      : 44.100 Hz; 16 Bit; Stereo
TOC of the extracted CD
Track |   Start  |  Length  | Start sector | End sector
---------------------------------------------------------
1  |  0:00.00 |  3:45.67 |         0    |    16941
2  |  3:45.67 |  3:59.33 |     16942    |    34899
3  |  7:45.25 |  4:25.40 |     34900    |    54814
4  | 12:10.65 |  1:55.60 |     54815    |    63499
5  | 14:06.50 |  4:01.12 |     63500    |    81586
6  | 18:07.62 |  2:43.30 |     81587    |    93841
7  | 20:51.17 |  2:55.63 |     93842    |   107029
8  | 23:47.05 |  3:50.37 |    107030    |   124316
9  | 27:37.42 |  2:07.40 |    124317    |   133881
10  | 29:45.07 |  3:54.68 |    133882    |   151499
11  | 33:40.00 |  4:06.45 |    151500    |   169994
12  | 37:46.45 |  6:08.05 |    169995    |   197599
13  | 43:54.50 |  2:22.00 |    197600    |   208249
14  | 46:16.50 |  3:57.32 |    208250    |   226056
15  | 50:14.07 |  4:06.12 |    226057    |   244518
16  | 54:20.19 |  2:33.68 |    244519    |   256061
Track  1
Filename E:\dmp_\Enya - 1991 - Shepherd Moons\01 - Shepherd Moons.wav
Pre-gap length  0:00:02.00
Peak level 79.3 %
Track quality 100.0 %
Test CRC FCFF685A
Copy CRC FCFF685A
Copy OK
Track  2
Filename E:\dmp_\Enya - 1991 - Shepherd Moons\02 - Caribbean Blue.wav
Pre-gap length  0:00:03.29
Peak level 93.0 %
Track quality 100.0 %
Test CRC 6FA59B7C
Copy CRC 6FA59B7C
Copy OK
Track  3
Filename E:\dmp_\Enya - 1991 - Shepherd Moons\03 - How Can I Keep From Singing.wav
Pre-gap length  0:00:01.27
Peak level 86.5 %
Track quality 100.0 %
Test CRC 2D52CD21
Copy CRC 2D52CD21
Copy OK
Track  4
Filename E:\dmp_\Enya - 1991 - Shepherd Moons\04 - Ebudae.wav
Pre-gap length  0:00:02.59
Peak level 82.7 %
Track quality 100.0 %
Test CRC 2A781A37
Copy CRC 2A781A37
Copy OK
Track  5
Filename E:\dmp_\Enya - 1991 - Shepherd Moons\05 - Angeles.wav
Pre-gap length  0:00:01.53
Peak level 82.5 %
Track quality 100.0 %
Test CRC 2242F697
Copy CRC 2242F697
Copy OK
Track  6
Filename E:\dmp_\Enya - 1991 - Shepherd Moons\06 - No Holly For Miss Quinn.wav
Pre-gap length  0:00:03.60
Peak level 71.9 %
Track quality 99.9 %
Test CRC 5C4BC496
Copy CRC 5C4BC496
Copy OK
Track  7
Filename E:\dmp_\Enya - 1991 - Shepherd Moons\07 - Book Of Days.wav
Pre-gap length  0:00:02.44
Peak level 92.5 %
Track quality 100.0 %
Test CRC 22F2E3A6
Copy CRC 22F2E3A6
Copy OK
Track  8
Filename E:\dmp_\Enya - 1991 - Shepherd Moons\08 - Evacuee.wav
Pre-gap length  0:00:01.05
Peak level 84.9 %
Track quality 99.9 %
Test CRC FD25CBEA
Copy CRC FD25CBEA
Copy OK
Track  9
Filename E:\dmp_\Enya - 1991 - Shepherd Moons\09 - Lothlorien.wav
Pre-gap length  0:00:01.19
Peak level 84.5 %
Track quality 100.0 %
Test CRC 5CCCA9C6
Copy CRC 5CCCA9C6
Copy OK
Track 10
Filename E:\dmp_\Enya - 1991 - Shepherd Moons\10 - Marble Halls.wav
Peak level 90.3 %
Track quality 100.0 %
Test CRC D3FE3B65
Copy CRC D3FE3B65
Copy OK
Track 11
Filename E:\dmp_\Enya - 1991 - Shepherd Moons\11 - Afer Ventus.wav
Pre-gap length  0:00:01.43
Peak level 94.4 %
Track quality 100.0 %
Test CRC 5B858139
Copy CRC 5B858139
Copy OK
Track 12
Filename E:\dmp_\Enya - 1991 - Shepherd Moons\12 - Smaointe.wav
Pre-gap length  0:00:01.45
Peak level 82.2 %
Track quality 100.0 %
Test CRC 99502243
Copy CRC 99502243
Copy OK
Track 13
Filename E:\dmp_\Enya - 1991 - Shepherd Moons\13 - Oriel Window (B-Side Caribbean Blue).wav
Pre-gap length  0:00:02.00
Peak level 94.2 %
Track quality 100.0 %
Test CRC DC85C732
Copy CRC DC85C732
Copy OK
Track 14
Filename E:\dmp_\Enya - 1991 - Shepherd Moons\14 - 'S Fagain Mo Bhaile (B-Side How Can I Keep From Singing).wav
Pre-gap length  0:00:02.00
Peak level 89.5 %
Track quality 100.0 %
Test CRC 89341469
Copy CRC 89341469
Copy OK
Track 15
Filename E:\dmp_\Enya - 1991 - Shepherd Moons\15 - As Baile (B-Side Book of Days).wav
Pre-gap length  0:00:02.00
Peak level 76.8 %
Track quality 100.0 %
Test CRC 1D90F6D2
Copy CRC 1D90F6D2
Copy OK
Track 16
Filename E:\dmp_\Enya - 1991 - Shepherd Moons\16 - Book of Days (Gaelic Version).wav
Pre-gap length  0:00:02.00
Peak level 96.2 %
Track quality 100.0 %
Test CRC 34B59B44
Copy CRC 34B59B44
Copy OK
No errors occurred
End of status report

Индексная карта (non-compilant .cue)

REM GENRE "New Age"
REM DATE 1991
REM DISCID EF0D5610
REM COMMENT "ExactAudioCopy v0.99pb5"
PERFORMER "Enya"
TITLE "Shepherd Moons"
FILE "01 - Shepherd Moons.flac" WAVE
TRACK 01 AUDIO
TITLE "Shepherd Moons"
PERFORMER "Enya"
INDEX 01 00:00:00
TRACK 02 AUDIO
TITLE "Caribbean Blue"
PERFORMER "Enya"
INDEX 00 03:42:38
FILE "02 - Caribbean Blue.flac" WAVE
INDEX 01 00:00:00
TRACK 03 AUDIO
TITLE "How Can I Keep From Singing"
PERFORMER "Enya"
INDEX 00 03:58:06
FILE "03 - How Can I Keep From Singing.flac" WAVE
INDEX 01 00:00:00
TRACK 04 AUDIO
TITLE "Ebudae"
PERFORMER "Enya"
INDEX 00 04:22:56
FILE "04 - Ebudae.flac" WAVE
INDEX 01 00:00:00
TRACK 05 AUDIO
TITLE "Angeles"
PERFORMER "Enya"
INDEX 00 01:54:07
FILE "05 - Angeles.flac" WAVE
INDEX 01 00:00:00
TRACK 06 AUDIO
TITLE "No Holly For Miss Quinn"
PERFORMER "Enya"
INDEX 00 03:57:27
FILE "06 - No Holly For Miss Quinn.flac" WAVE
INDEX 01 00:00:00
TRACK 07 AUDIO
TITLE "Book Of Days"
PERFORMER "Enya"
INDEX 00 02:40:61
FILE "07 - Book Of Days.flac" WAVE
INDEX 01 00:00:00
TRACK 08 AUDIO
TITLE "Evacuee"
PERFORMER "Enya"
INDEX 00 02:54:58
FILE "08 - Evacuee.flac" WAVE
INDEX 01 00:00:00
TRACK 09 AUDIO
TITLE "Lothlorien"
PERFORMER "Enya"
INDEX 00 03:49:18
FILE "09 - Lothlorien.flac" WAVE
INDEX 01 00:00:00
FILE "10 - Marble Halls.flac" WAVE
TRACK 10 AUDIO
TITLE "Marble Halls"
PERFORMER "Enya"
INDEX 01 00:00:00
TRACK 11 AUDIO
TITLE "Afer Ventus"
PERFORMER "Enya"
INDEX 00 03:53:25
FILE "11 - Afer Ventus.flac" WAVE
INDEX 01 00:00:00
TRACK 12 AUDIO
TITLE "Smaointe"
PERFORMER "Enya"
INDEX 00 04:05:00
FILE "12 - Smaointe.flac" WAVE
INDEX 01 00:00:00
TRACK 13 AUDIO
TITLE "Oriel Window (B-Side Caribbean Blue)"
PERFORMER "Enya"
INDEX 00 06:06:05
FILE "13 - Oriel Window (B-Side Caribbean Blue).flac" WAVE
INDEX 01 00:00:00
TRACK 14 AUDIO
TITLE "'S Fagain Mo Bhaile (B-Side How Can I Keep From Singing)"
PERFORMER "Enya"
INDEX 00 02:20:00
FILE "14 - 'S Fagain Mo Bhaile (B-Side How Can I Keep From Singing).flac" WAVE
INDEX 01 00:00:00
TRACK 15 AUDIO
TITLE "As Baile (B-Side Book of Days)"
PERFORMER "Enya"
INDEX 00 03:55:32
FILE "15 - As Baile (B-Side Book of Days).flac" WAVE
INDEX 01 00:00:00
TRACK 16 AUDIO
TITLE "Book of Days (Gaelic Version)"
PERFORMER "Enya"
INDEX 00 04:04:12
FILE "16 - Book of Days (Gaelic Version).flac" WAVE
INDEX 01 00:00:00

CD 4: ENYA - 1995 - The Memory Of Trees (LE RM 2015) 00:56:35

01. Enya - The Memory Of Trees (4:18)
02. Enya - Anywhere Is (3:58)
03. Enya - Pax Deorum (4:58)
04. Enya - Athair Ar Neamh (3:40)
05. Enya - From Where I Am (2:21)
06. Enya - China Roses (4:48)
07. Enya - Hope Has A Place (4:45)
08. Enya - Tea House Moon (2:42)
09. Enya - Once You Had Gold (3:17)
10. Enya - La Sonadora (3:35)
11. Enya - On My Way Home (5:07)
Bonus Tracks
12. Enya - Eclipse (B-Side On My Way Home) (1:28)
13. Enya - I May Not Awaken (B-Side On My Way Home) (4:23)
14. Enya - Boadicea (B-Side On My Way Home) (3:29)
15. Enya - Only If (Single) (3:17)

Лог создания рипа

Exact Audio Copy V0.99 prebeta 5 from 4. May 2009
EAC extraction logfile from 10. January 2015, 16:33
Enya / The Memory Of Trees
Used drive  : LITE-ON DVDRW SHM-165S6S   Adapter: 1  ID: 0
Read mode               : Secure
Utilize accurate stream : Yes
Defeat audio cache      : Yes
Make use of C2 pointers : No
Read offset correction                      : 6
Overread into Lead-In and Lead-Out          : No
Fill up missing offset samples with silence : Yes
Delete leading and trailing silent blocks   : No
Null samples used in CRC calculations       : Yes
Used interface                              : Installed external ASPI interface
Gap handling                                : Appended to previous track
Used output format : Internal WAV Routines
Sample format      : 44.100 Hz; 16 Bit; Stereo
TOC of the extracted CD
Track |   Start  |  Length  | Start sector | End sector
---------------------------------------------------------
1  |  0:00.00 |  4:19.70 |         0    |    19494
2  |  4:19.70 |  3:59.35 |     19495    |    37454
3  |  8:19.30 |  4:59.50 |     37455    |    59929
4  | 13:19.05 |  3:42.07 |     59930    |    76586
5  | 17:01.12 |  2:22.65 |     76587    |    87301
6  | 19:24.02 |  4:49.60 |     87302    |   109036
7  | 24:13.62 |  4:48.48 |    109037    |   130684
8  | 29:02.35 |  2:43.32 |    130685    |   142941
9  | 31:45.67 |  3:18.25 |    142942    |   157816
10  | 35:04.17 |  3:38.18 |    157817    |   174184
11  | 38:42.35 |  5:09.10 |    174185    |   197369
12  | 43:51.45 |  1:30.00 |    197370    |   204119
13  | 45:21.45 |  4:25.25 |    204120    |   224019
14  | 49:46.70 |  3:30.32 |    224020    |   239801
15  | 53:17.27 |  3:17.43 |    239802    |   254619
Track  1
Filename E:\dmp_\Enya - 1995 - The Memory Of Trees\01 - The Memory of Trees.wav
Pre-gap length  0:00:02.00
Peak level 87.4 %
Track quality 100.0 %
Test CRC 0CBDA777
Copy CRC 0CBDA777
Copy OK
Track  2
Filename E:\dmp_\Enya - 1995 - The Memory Of Trees\02 - Anywhere Is.wav
Pre-gap length  0:00:01.56
Peak level 88.8 %
Track quality 100.0 %
Test CRC B20D89A0
Copy CRC B20D89A0
Copy OK
Track  3
Filename E:\dmp_\Enya - 1995 - The Memory Of Trees\03 - Pax Deorum.wav
Pre-gap length  0:00:01.68
Peak level 96.6 %
Track quality 100.0 %
Test CRC 8823ED2A
Copy CRC 8823ED2A
Copy OK
Track  4
Filename E:\dmp_\Enya - 1995 - The Memory Of Trees\04 - Athair Ar Neamh.wav
Pre-gap length  0:00:02.05
Peak level 64.5 %
Track quality 100.0 %
Test CRC 8633B954
Copy CRC 8633B954
Copy OK
Track  5
Filename E:\dmp_\Enya - 1995 - The Memory Of Trees\05 - From Where I Am.wav
Pre-gap length  0:00:01.46
Peak level 29.7 %
Track quality 100.0 %
Test CRC AD536D90
Copy CRC AD536D90
Copy OK
Track  6
Filename E:\dmp_\Enya - 1995 - The Memory Of Trees\06 - China Roses.wav
Pre-gap length  0:00:01.65
Peak level 79.4 %
Track quality 100.0 %
Test CRC A3BEFBE9
Copy CRC A3BEFBE9
Copy OK
Track  7
Filename E:\dmp_\Enya - 1995 - The Memory Of Trees\07 - Hope Has a Place.wav
Pre-gap length  0:00:01.62
Peak level 68.3 %
Track quality 100.0 %
Test CRC AEE7A8E0
Copy CRC AEE7A8E0
Copy OK
Track  8
Filename E:\dmp_\Enya - 1995 - The Memory Of Trees\08 - Tea House Moon.wav
Pre-gap length  0:00:03.60
Peak level 74.1 %
Track quality 100.0 %
Test CRC 14629F52
Copy CRC 14629F52
Copy OK
Track  9
Filename E:\dmp_\Enya - 1995 - The Memory Of Trees\09 - Once You Had Gold.wav
Pre-gap length  0:00:01.65
Peak level 55.5 %
Track quality 100.0 %
Test CRC 8E08C999
Copy CRC 8E08C999
Copy OK
Track 10
Filename E:\dmp_\Enya - 1995 - The Memory Of Trees\10 - La Sonadora.wav
Pre-gap length  0:00:01.65
Peak level 76.7 %
Track quality 100.0 %
Test CRC AB6DBFD3
Copy CRC AB6DBFD3
Copy OK
Track 11
Filename E:\dmp_\Enya - 1995 - The Memory Of Trees\11 - On My Way Home.wav
Pre-gap length  0:00:02.65
Peak level 85.9 %
Track quality 99.9 %
Test CRC 578879EB
Copy CRC 578879EB
Copy OK
Track 12
Filename E:\dmp_\Enya - 1995 - The Memory Of Trees\12 - Eclipse (B-Side On My Way Home).wav
Pre-gap length  0:00:02.00
Peak level 62.0 %
Track quality 99.8 %
Test CRC 5A409BF8
Copy CRC 5A409BF8
Copy OK
Track 13
Filename E:\dmp_\Enya - 1995 - The Memory Of Trees\13 - I May Not Awaken (B-Side On My Way Home).wav
Pre-gap length  0:00:02.00
Peak level 82.1 %
Track quality 100.0 %
Test CRC 9C92CC8B
Copy CRC 9C92CC8B
Copy OK
Track 14
Filename E:\dmp_\Enya - 1995 - The Memory Of Trees\14 - Boadicea (B-Side On My Way Home).wav
Pre-gap length  0:00:02.00
Peak level 97.7 %
Track quality 100.0 %
Test CRC A306AEEC
Copy CRC A306AEEC
Copy OK
Track 15
Filename E:\dmp_\Enya - 1995 - The Memory Of Trees\15 - Only If (Single).wav
Pre-gap length  0:00:02.00
Peak level 94.7 %
Track quality 100.0 %
Test CRC BAA828BC
Copy CRC BAA828BC
Copy OK
No errors occurred
End of status report

Индексная карта (non-compilant .cue)

REM GENRE "New Age"
REM DATE 1995
REM DISCID BF0D420F
REM COMMENT "ExactAudioCopy v0.99pb5"
PERFORMER "Enya"
TITLE "The Memory Of Trees"
FILE "01 - The Memory of Trees.flac" WAVE
TRACK 01 AUDIO
TITLE "The Memory of Trees"
PERFORMER "Enya"
INDEX 01 00:00:00
TRACK 02 AUDIO
TITLE "Anywhere Is"
PERFORMER "Enya"
INDEX 00 04:18:14
FILE "02 - Anywhere Is.flac" WAVE
INDEX 01 00:00:00
TRACK 03 AUDIO
TITLE "Pax Deorum"
PERFORMER "Enya"
INDEX 00 03:57:42
FILE "03 - Pax Deorum.flac" WAVE
INDEX 01 00:00:00
TRACK 04 AUDIO
TITLE "Athair Ar Neamh"
PERFORMER "Enya"
INDEX 00 04:57:45
FILE "04 - Athair Ar Neamh.flac" WAVE
INDEX 01 00:00:00
TRACK 05 AUDIO
TITLE "From Where I Am"
PERFORMER "Enya"
INDEX 00 03:40:36
FILE "05 - From Where I Am.flac" WAVE
INDEX 01 00:00:00
TRACK 06 AUDIO
TITLE "China Roses"
PERFORMER "Enya"
INDEX 00 02:21:00
FILE "06 - China Roses.flac" WAVE
INDEX 01 00:00:00
TRACK 07 AUDIO
TITLE "Hope Has a Place"
PERFORMER "Enya"
INDEX 00 04:47:73
FILE "07 - Hope Has a Place.flac" WAVE
INDEX 01 00:00:00
TRACK 08 AUDIO
TITLE "Tea House Moon"
PERFORMER "Enya"
INDEX 00 04:44:63
FILE "08 - Tea House Moon.flac" WAVE
INDEX 01 00:00:00
TRACK 09 AUDIO
TITLE "Once You Had Gold"
PERFORMER "Enya"
INDEX 00 02:41:42
FILE "09 - Once You Had Gold.flac" WAVE
INDEX 01 00:00:00
TRACK 10 AUDIO
TITLE "La Sonadora"
PERFORMER "Enya"
INDEX 00 03:16:35
FILE "10 - La Sonadora.flac" WAVE
INDEX 01 00:00:00
TRACK 11 AUDIO
TITLE "On My Way Home"
PERFORMER "Enya"
INDEX 00 03:35:28
FILE "11 - On My Way Home.flac" WAVE
INDEX 01 00:00:00
TRACK 12 AUDIO
TITLE "Eclipse (B-Side On My Way Home)"
PERFORMER "Enya"
INDEX 00 05:07:10
FILE "12 - Eclipse (B-Side On My Way Home).flac" WAVE
INDEX 01 00:00:00
TRACK 13 AUDIO
TITLE "I May Not Awaken (B-Side On My Way Home)"
PERFORMER "Enya"
INDEX 00 01:28:00
FILE "13 - I May Not Awaken (B-Side On My Way Home).flac" WAVE
INDEX 01 00:00:00
TRACK 14 AUDIO
TITLE "Boadicea (B-Side On My Way Home)"
PERFORMER "Enya"
INDEX 00 04:23:25
FILE "14 - Boadicea (B-Side On My Way Home).flac" WAVE
INDEX 01 00:00:00
TRACK 15 AUDIO
TITLE "Only If (Single)"
PERFORMER "Enya"
INDEX 00 03:28:32
FILE "15 - Only If (Single).flac" WAVE
INDEX 01 00:00:00

CD 5: ENYA - 2000 - A Day Without Rain (LE RM 2015) 01:04:06

01. Enya - A Day Without Rain (2:38)
02. Enya - Wild Child (3:47)
03. Enya - Only Time (3:38)
04. Enya - Tempus Vernum (2:24)
05. Enya - Deora Ar Mo Chroi (2:48)
06. Enya - Flora's Secret (4:06)
07. Enya - Fallen Embers (2:29)
08. Enya - Silver Inches (1:37)
09. Enya - Pilgrim (3:11)
10. Enya - One By One (3:53)
11. Enya - The First of Autumn (3:08)
12. Enya - Lazy Days (3:40)
Bonus Tracks
13. Enya - Willows On The Water (B-Side Only Time) (3:01)
14. Enya - The Promise (B-Side Only Time) (2:28)
15. Enya - Isobella (B-Side May It Be) (4:27)
16. Enya - Midnight Blue (B-Side Wild Child) (2:03)
17. Enya - Song Of The Sandman (B-Side Wild Child) (3:38)
18. Enya - May It Be (Single Edit) (3:33)
19. Enya - Only Time (Remix) (3:19)
20. Enya - Aniron (from The Lord OF The Rings OST) (3:49)

Лог создания рипа

Exact Audio Copy V0.99 prebeta 5 from 4. May 2009
EAC extraction logfile from 10. January 2015, 18:38
Enya / A Day Without Rain
Used drive  : LITE-ON DVDRW SHM-165S6S   Adapter: 1  ID: 0
Read mode               : Secure
Utilize accurate stream : Yes
Defeat audio cache      : Yes
Make use of C2 pointers : No
Read offset correction                      : 6
Overread into Lead-In and Lead-Out          : No
Fill up missing offset samples with silence : Yes
Delete leading and trailing silent blocks   : No
Null samples used in CRC calculations       : Yes
Used interface                              : Installed external ASPI interface
Gap handling                                : Appended to previous track
Used output format : Internal WAV Routines
Sample format      : 44.100 Hz; 16 Bit; Stereo
TOC of the extracted CD
Track |   Start  |  Length  | Start sector | End sector
---------------------------------------------------------
1  |  0:00.00 |  2:38.17 |         0    |    11866
2  |  2:38.17 |  3:47.70 |     11867    |    28961
3  |  6:26.12 |  3:38.03 |     28962    |    45314
4  | 10:04.15 |  2:24.20 |     45315    |    56134
5  | 12:28.35 |  2:48.72 |     56135    |    68806
6  | 15:17.32 |  4:07.38 |     68807    |    87369
7  | 19:24.70 |  2:31.02 |     87370    |    98696
8  | 21:55.72 |  1:37.68 |     98697    |   106039
9  | 23:33.65 |  3:12.52 |    106040    |   120491
10  | 26:46.42 |  3:54.48 |    120492    |   138089
11  | 30:41.15 |  3:10.05 |    138090    |   152344
12  | 33:51.20 |  3:42.45 |    152345    |   169039
13  | 37:33.65 |  3:02.38 |    169040    |   182727
14  | 40:36.28 |  2:29.50 |    182728    |   193952
15  | 43:06.03 |  4:29.53 |    193953    |   214180
16  | 47:35.56 |  2:04.37 |    214181    |   223517
17  | 49:40.18 |  3:40.43 |    223518    |   240060
18  | 53:20.61 |  3:34.32 |    240061    |   256142
19  | 56:55.18 |  3:20.65 |    256143    |   271207
20  | 60:16.08 |  3:49.08 |    271208    |   288390
Track  1
Filename E:\dmp_\Enya - 2000 - A Day Without Rain\01 - A Day Without Rain.wav
Pre-gap length  0:00:02.00
Peak level 61.9 %
Track quality 100.0 %
Test CRC FA3787E8
Copy CRC FA3787E8
Copy OK
Track  2
Filename E:\dmp_\Enya - 2000 - A Day Without Rain\02 - Wild Child.wav
Peak level 84.8 %
Track quality 100.0 %
Test CRC FB6735DC
Copy CRC FB6735DC
Copy OK
Track  3
Filename E:\dmp_\Enya - 2000 - A Day Without Rain\03 - Only Time.wav
Pre-gap length  0:00:01.00
Peak level 90.5 %
Track quality 100.0 %
Test CRC AB1DC28D
Copy CRC AB1DC28D
Copy OK
Track  4
Filename E:\dmp_\Enya - 2000 - A Day Without Rain\04 - Tempus Vernum.wav
Peak level 74.7 %
Track quality 100.0 %
Test CRC A13F8623
Copy CRC A13F8623
Copy OK
Track  5
Filename E:\dmp_\Enya - 2000 - A Day Without Rain\05 - Deora Ar Mo Chroi.wav
Peak level 44.0 %
Track quality 100.0 %
Test CRC 6120BE51
Copy CRC 6120BE51
Copy OK
Track  6
Filename E:\dmp_\Enya - 2000 - A Day Without Rain\06 - Flora's Secret.wav
Pre-gap length  0:00:00.71
Peak level 80.9 %
Track quality 100.0 %
Test CRC DAE099D8
Copy CRC DAE099D8
Copy OK
Track  7
Filename E:\dmp_\Enya - 2000 - A Day Without Rain\07 - Fallen Embers.wav
Pre-gap length  0:00:01.59
Peak level 50.9 %
Track quality 100.0 %
Test CRC 9A2D55D4
Copy CRC 9A2D55D4
Copy OK
Track  8
Filename E:\dmp_\Enya - 2000 - A Day Without Rain\08 - Silver Inches.wav
Pre-gap length  0:00:02.15
Peak level 80.9 %
Track quality 100.0 %
Test CRC 44592BA8
Copy CRC 44592BA8
Copy OK
Track  9
Filename E:\dmp_\Enya - 2000 - A Day Without Rain\09 - Pilgrim.wav
Pre-gap length  0:00:01.60
Peak level 64.1 %
Track quality 100.0 %
Test CRC D0D5ED43
Copy CRC D0D5ED43
Copy OK
Track 10
Filename E:\dmp_\Enya - 2000 - A Day Without Rain\10 - One By One.wav
Pre-gap length  0:00:01.53
Peak level 74.1 %
Track quality 100.0 %
Test CRC 7E3A34AD
Copy CRC 7E3A34AD
Copy OK
Track 11
Filename E:\dmp_\Enya - 2000 - A Day Without Rain\11 - The First of Autumn.wav
Pre-gap length  0:00:01.19
Peak level 84.1 %
Track quality 100.0 %
Test CRC 9E74C981
Copy CRC 9E74C981
Copy OK
Track 12
Filename E:\dmp_\Enya - 2000 - A Day Without Rain\12 - Lazy Days.wav
Pre-gap length  0:00:01.58
Peak level 78.2 %
Track quality 100.0 %
Test CRC 7ED225CF
Copy CRC 7ED225CF
Copy OK
Track 13
Filename E:\dmp_\Enya - 2000 - A Day Without Rain\13 - Willows On The Water (B-Side Only Time).wav
Pre-gap length  0:00:02.00
Peak level 91.2 %
Track quality 100.0 %
Test CRC 6ECE1F1A
Copy CRC 6ECE1F1A
Copy OK
Track 14
Filename E:\dmp_\Enya - 2000 - A Day Without Rain\14 - The Promise (B-Side Only Time).wav
Pre-gap length  0:00:02.00
Peak level 77.1 %
Track quality 100.0 %
Test CRC 32E02640
Copy CRC 32E02640
Copy OK
Track 15
Filename E:\dmp_\Enya - 2000 - A Day Without Rain\15 - Isobella (B-Side May It Be).wav
Pre-gap length  0:00:02.00
Peak level 72.8 %
Track quality 100.0 %
Test CRC AE843F99
Copy CRC AE843F99
Copy OK
Track 16
Filename E:\dmp_\Enya - 2000 - A Day Without Rain\16 - Midnight Blue (B-Side Wild Child).wav
Pre-gap length  0:00:02.00
Peak level 71.9 %
Track quality 100.0 %
Test CRC B16CF7E9
Copy CRC B16CF7E9
Copy OK
Track 17
Filename E:\dmp_\Enya - 2000 - A Day Without Rain\17 - Song of the Sandman (B-Side Wild Child).wav
Pre-gap length  0:00:02.00
Peak level 78.0 %
Track quality 100.0 %
Test CRC 6877A448
Copy CRC 6877A448
Copy OK
Track 18
Filename E:\dmp_\Enya - 2000 - A Day Without Rain\18 - May It Be (Single Edit).wav
Pre-gap length  0:00:02.00
Peak level 79.9 %
Track quality 100.0 %
Test CRC 51879626
Copy CRC 51879626
Copy OK
Track 19
Filename E:\dmp_\Enya - 2000 - A Day Without Rain\19 - Only Time (remix).wav
Pre-gap length  0:00:02.00
Peak level 93.3 %
Track quality 100.0 %
Test CRC EA649D94
Copy CRC EA649D94
Copy OK
Track 20
Filename E:\dmp_\Enya - 2000 - A Day Without Rain\20 - Aniron (from The Lord of the Rings OST).wav
Pre-gap length  0:00:02.00
Peak level 90.2 %
Track quality 100.0 %
Test CRC 1A05EC28
Copy CRC 1A05EC28
Copy OK
No errors occurred
End of status report

Индексная карта (non-compilant .cue)

REM GENRE "New Age"
REM DATE 2000
REM DISCID 1D0F0514
REM COMMENT "ExactAudioCopy v0.99pb5"
PERFORMER "Enya"
TITLE "A Day Without Rain"
FILE "01 - A Day Without Rain.flac" WAVE
TRACK 01 AUDIO
TITLE "A Day Without Rain"
PERFORMER "Enya"
INDEX 01 00:00:00
FILE "02 - Wild Child.flac" WAVE
TRACK 02 AUDIO
TITLE "Wild Child"
PERFORMER "Enya"
INDEX 01 00:00:00
TRACK 03 AUDIO
TITLE "Only Time"
PERFORMER "Enya"
INDEX 00 03:46:70
FILE "03 - Only Time.flac" WAVE
INDEX 01 00:00:00
FILE "04 - Tempus Vernum.flac" WAVE
TRACK 04 AUDIO
TITLE "Tempus Vernum"
PERFORMER "Enya"
INDEX 01 00:00:00
FILE "05 - Deora Ar Mo Chroi.flac" WAVE
TRACK 05 AUDIO
TITLE "Deora Ar Mo Chroi"
PERFORMER "Enya"
INDEX 01 00:00:00
TRACK 06 AUDIO
TITLE "Flora's Secret"
PERFORMER "Enya"
INDEX 00 02:48:01
FILE "06 - Flora's Secret.flac" WAVE
INDEX 01 00:00:00
TRACK 07 AUDIO
TITLE "Fallen Embers"
PERFORMER "Enya"
INDEX 00 04:05:54
FILE "07 - Fallen Embers.flac" WAVE
INDEX 01 00:00:00
TRACK 08 AUDIO
TITLE "Silver Inches"
PERFORMER "Enya"
INDEX 00 02:28:62
FILE "08 - Silver Inches.flac" WAVE
INDEX 01 00:00:00
TRACK 09 AUDIO
TITLE "Pilgrim"
PERFORMER "Enya"
INDEX 00 01:36:08
FILE "09 - Pilgrim.flac" WAVE
INDEX 01 00:00:00
TRACK 10 AUDIO
TITLE "One By One"
PERFORMER "Enya"
INDEX 00 03:10:74
FILE "10 - One By One.flac" WAVE
INDEX 01 00:00:00
TRACK 11 AUDIO
TITLE "The First of Autumn"
PERFORMER "Enya"
INDEX 00 03:53:29
FILE "11 - The First of Autumn.flac" WAVE
INDEX 01 00:00:00
TRACK 12 AUDIO
TITLE "Lazy Days"
PERFORMER "Enya"
INDEX 00 03:08:22
FILE "12 - Lazy Days.flac" WAVE
INDEX 01 00:00:00
TRACK 13 AUDIO
TITLE "Willows On The Water (B-Side Only Time)"
PERFORMER "Enya"
INDEX 00 03:40:45
FILE "13 - Willows On The Water (B-Side Only Time).flac" WAVE
INDEX 01 00:00:00
TRACK 14 AUDIO
TITLE "The Promise (B-Side Only Time)"
PERFORMER "Enya"
INDEX 00 03:00:38
FILE "14 - The Promise (B-Side Only Time).flac" WAVE
INDEX 01 00:00:00
TRACK 15 AUDIO
TITLE "Isobella (B-Side May It Be)"
PERFORMER "Enya"
INDEX 00 02:27:50
FILE "15 - Isobella (B-Side May It Be).flac" WAVE
INDEX 01 00:00:00
TRACK 16 AUDIO
TITLE "Midnight Blue (B-Side Wild Child)"
PERFORMER "Enya"
INDEX 00 04:27:53
FILE "16 - Midnight Blue (B-Side Wild Child).flac" WAVE
INDEX 01 00:00:00
TRACK 17 AUDIO
TITLE "Song of the Sandman (B-Side Wild Child)"
PERFORMER "Enya"
INDEX 00 02:02:37
FILE "17 - Song of the Sandman (B-Side Wild Child).flac" WAVE
INDEX 01 00:00:00
TRACK 18 AUDIO
TITLE "May It Be (Single Edit)"
PERFORMER "Enya"
INDEX 00 03:38:43
FILE "18 - May It Be (Single Edit).flac" WAVE
INDEX 01 00:00:00
TRACK 19 AUDIO
TITLE "Only Time (remix)"
PERFORMER "Enya"
INDEX 00 03:32:32
FILE "19 - Only Time (remix).flac" WAVE
INDEX 01 00:00:00
TRACK 20 AUDIO
TITLE "Aniron (from The Lord of the Rings OST)"
PERFORMER "Enya"
INDEX 00 03:18:65
FILE "20 - Aniron (from The Lord of the Rings OST).flac" WAVE
INDEX 01 00:00:00

CD 6: ENYA - 2005 - Amarantine (LE RM 2015) 01:04:14

01. Enya - Less Than A Pearl (3:44)
02. Enya - Amarantine (3:10)
03. Enya - It's In The Rain (4:05)
04. Enya - If I Could Be Where You Are (3:59)
05. Enya - The River Sings (2:49)
06. Enya - Long Long Journey (3:15)
07. Enya - Sumiregusa (4:41)
08. Enya - Somebody Said Goodbye (4:00)
09. Enya - A Moment Lost (3:07)
10. Enya - Drifting (4:10)
11. Enya - Amid The Falling Snow (3:36)
12. Enya - Water Shows The Hidden Heart (4:38)
Bonus Tracks
13. Enya - The Comb of the Winds (B-Side Amarantine) (3:37)
14. Enya - Adeste, Fideles (Christmas Secrets EP) (3:57)
15. Enya - The Magic of the Night (Christmas Secrets EP) (3:31)
16. Enya - We Wish You a Merry Christmas (Christmas Secrets EP) (3:41)
17. Enya - Christmas Secrets (Christmas Secrets EP) (3:44)

Лог создания рипа

Exact Audio Copy V0.99 prebeta 5 from 4. May 2009
EAC extraction logfile from 10. January 2015, 16:01
Enya / Amarantine
Used drive  : LITE-ON DVDRW SHM-165S6S   Adapter: 1  ID: 0
Read mode               : Secure
Utilize accurate stream : Yes
Defeat audio cache      : Yes
Make use of C2 pointers : No
Read offset correction                      : 6
Overread into Lead-In and Lead-Out          : No
Fill up missing offset samples with silence : Yes
Delete leading and trailing silent blocks   : No
Null samples used in CRC calculations       : Yes
Used interface                              : Installed external ASPI interface
Gap handling                                : Appended to previous track
Used output format : Internal WAV Routines
Sample format      : 44.100 Hz; 16 Bit; Stereo
TOC of the extracted CD
Track |   Start  |  Length  | Start sector | End sector
---------------------------------------------------------
1  |  0:00.00 |  3:44.20 |         0    |    16819
2  |  3:44.20 |  3:12.55 |     16820    |    31274
3  |  6:57.00 |  4:08.05 |     31275    |    49879
4  | 11:05.05 |  4:00.51 |     49880    |    67930
5  | 15:05.56 |  2:49.45 |     67931    |    80650
6  | 17:55.26 |  3:17.24 |     80651    |    95449
7  | 21:12.50 |  4:42.04 |     95450    |   116603
8  | 25:54.54 |  4:02.19 |    116604    |   134772
9  | 29:56.73 |  3:08.37 |    134773    |   148909
10  | 33:05.35 |  4:11.59 |    148910    |   167793
11  | 37:17.19 |  3:38.48 |    167794    |   184191
12  | 40:55.67 |  4:39.08 |    184192    |   205124
13  | 45:35.00 |  3:39.07 |    205125    |   221556
14  | 49:14.07 |  3:59.35 |    221557    |   239516
15  | 53:13.42 |  3:32.65 |    239517    |   255481
16  | 56:46.32 |  3:42.50 |    255482    |   272181
17  | 60:29.07 |  3:44.63 |    272182    |   289044
Track  1
Filename E:\dmp_\Enya - 2005 - Amarantine\01 - Less Than A Pearl.wav
Pre-gap length  0:00:02.00
Peak level 81.4 %
Track quality 100.0 %
Test CRC DFA7E932
Copy CRC DFA7E932
Copy OK
Track  2
Filename E:\dmp_\Enya - 2005 - Amarantine\02 - Amarantine.wav
Peak level 91.9 %
Track quality 100.0 %
Test CRC E2C2E8B5
Copy CRC E2C2E8B5
Copy OK
Track  3
Filename E:\dmp_\Enya - 2005 - Amarantine\03 - It's In The Rain.wav
Pre-gap length  0:00:02.15
Peak level 85.7 %
Track quality 100.0 %
Test CRC 08EA5761
Copy CRC 08EA5761
Copy OK
Track  4
Filename E:\dmp_\Enya - 2005 - Amarantine\04 - If I Could Be Where You Are.wav
Pre-gap length  0:00:02.20
Peak level 70.8 %
Track quality 100.0 %
Test CRC 1A4734AB
Copy CRC 1A4734AB
Copy OK
Track  5
Filename E:\dmp_\Enya - 2005 - Amarantine\05 - The River Sings.wav
Pre-gap length  0:00:01.48
Peak level 81.9 %
Track quality 100.0 %
Test CRC D73942EB
Copy CRC D73942EB
Copy OK
Track  6
Filename E:\dmp_\Enya - 2005 - Amarantine\06 - Long Long Journey.wav
Pre-gap length  0:00:01.06
Peak level 85.9 %
Track quality 100.0 %
Test CRC CD5E0A22
Copy CRC CD5E0A22
Copy OK
Track  7
Filename E:\dmp_\Enya - 2005 - Amarantine\07 - Sumiregusa.wav
Pre-gap length  0:00:01.62
Peak level 81.7 %
Track quality 100.0 %
Test CRC E0B550A3
Copy CRC E0B550A3
Copy OK
Track  8
Filename E:\dmp_\Enya - 2005 - Amarantine\08 - Somebody Said Goodbye.wav
Pre-gap length  0:00:01.04
Peak level 85.9 %
Track quality 100.0 %
Test CRC FBBC46CA
Copy CRC FBBC46CA
Copy OK
Track  9
Filename E:\dmp_\Enya - 2005 - Amarantine\09 - A Moment Lost.wav
Pre-gap length  0:00:02.46
Peak level 79.4 %
Track quality 100.0 %
Test CRC 54BD5038
Copy CRC 54BD5038
Copy OK
Track 10
Filename E:\dmp_\Enya - 2005 - Amarantine\10 - Drifting.wav
Pre-gap length  0:00:01.55
Peak level 65.1 %
Track quality 100.0 %
Test CRC 3F4A1C1A
Copy CRC 3F4A1C1A
Copy OK
Track 11
Filename E:\dmp_\Enya - 2005 - Amarantine\11 - Amid The Falling Snow.wav
Pre-gap length  0:00:01.54
Peak level 72.9 %
Track quality 100.0 %
Test CRC E2272806
Copy CRC E2272806
Copy OK
Track 12
Filename E:\dmp_\Enya - 2005 - Amarantine\12 - Water Shows The Hidden Heart.wav
Pre-gap length  0:00:02.19
Peak level 75.3 %
Track quality 100.0 %
Test CRC 1D70B38F
Copy CRC 1D70B38F
Copy OK
Track 13
Filename E:\dmp_\Enya - 2005 - Amarantine\13 - The Comb of the Winds (B-Side Amarantine).wav
Pre-gap length  0:00:02.00
Peak level 74.5 %
Track quality 100.0 %
Test CRC 5301F3EF
Copy CRC 5301F3EF
Copy OK
Track 14
Filename E:\dmp_\Enya - 2005 - Amarantine\14 - Adeste, Fideles (Christmas Secrets EP).wav
Pre-gap length  0:00:02.00
Peak level 86.4 %
Track quality 100.0 %
Test CRC 25F22B25
Copy CRC 25F22B25
Copy OK
Track 15
Filename E:\dmp_\Enya - 2005 - Amarantine\15 - The Magic of the Night (Christmas Secrets EP).wav
Pre-gap length  0:00:02.00
Peak level 74.4 %
Track quality 99.9 %
Test CRC 582825CB
Copy CRC 582825CB
Copy OK
Track 16
Filename E:\dmp_\Enya - 2005 - Amarantine\16 - We Wish You a Merry Christmas (Christmas Secrets EP).wav
Pre-gap length  0:00:02.00
Peak level 74.1 %
Track quality 100.0 %
Test CRC 394E9270
Copy CRC 394E9270
Copy OK
Track 17
Filename E:\dmp_\Enya - 2005 - Amarantine\17 - Christmas Secrets (Christmas Secrets EP).wav
Pre-gap length  0:00:02.00
Peak level 73.4 %
Track quality 100.0 %
Test CRC BB9F7F2E
Copy CRC BB9F7F2E
Copy OK
No errors occurred
End of status report

Индексная карта (non-compilant .cue)

REM GENRE "New Age"
REM DATE 2005
REM DISCID 170F0D11
REM COMMENT "ExactAudioCopy v0.99pb5"
PERFORMER "Enya"
TITLE "Amarantine"
FILE "01 - Less Than A Pearl.flac" WAVE
TRACK 01 AUDIO
TITLE "Less Than A Pearl"
PERFORMER "Enya"
INDEX 01 00:00:00
FILE "02 - Amarantine.flac" WAVE
TRACK 02 AUDIO
TITLE "Amarantine"
PERFORMER "Enya"
INDEX 01 00:00:00
TRACK 03 AUDIO
TITLE "It's In The Rain"
PERFORMER "Enya"
INDEX 00 03:10:40
FILE "03 - It's In The Rain.flac" WAVE
INDEX 01 00:00:00
TRACK 04 AUDIO
TITLE "If I Could Be Where You Are"
PERFORMER "Enya"
INDEX 00 04:05:60
FILE "04 - If I Could Be Where You Are.flac" WAVE
INDEX 01 00:00:00
TRACK 05 AUDIO
TITLE "The River Sings"
PERFORMER "Enya"
INDEX 00 03:59:03
FILE "05 - The River Sings.flac" WAVE
INDEX 01 00:00:00
TRACK 06 AUDIO
TITLE "Long Long Journey"
PERFORMER "Enya"
INDEX 00 02:48:39
FILE "06 - Long Long Journey.flac" WAVE
INDEX 01 00:00:00
TRACK 07 AUDIO
TITLE "Sumiregusa"
PERFORMER "Enya"
INDEX 00 03:15:37
FILE "07 - Sumiregusa.flac" WAVE
INDEX 01 00:00:00
TRACK 08 AUDIO
TITLE "Somebody Said Goodbye"
PERFORMER "Enya"
INDEX 00 04:41:00
FILE "08 - Somebody Said Goodbye.flac" WAVE
INDEX 01 00:00:00
TRACK 09 AUDIO
TITLE "A Moment Lost"
PERFORMER "Enya"
INDEX 00 03:59:48
FILE "09 - A Moment Lost.flac" WAVE
INDEX 01 00:00:00
TRACK 10 AUDIO
TITLE "Drifting"
PERFORMER "Enya"
INDEX 00 03:06:57
FILE "10 - Drifting.flac" WAVE
INDEX 01 00:00:00
TRACK 11 AUDIO
TITLE "Amid The Falling Snow"
PERFORMER "Enya"
INDEX 00 04:10:05
FILE "11 - Amid The Falling Snow.flac" WAVE
INDEX 01 00:00:00
TRACK 12 AUDIO
TITLE "Water Shows The Hidden Heart"
PERFORMER "Enya"
INDEX 00 03:36:29
FILE "12 - Water Shows The Hidden Heart.flac" WAVE
INDEX 01 00:00:00
TRACK 13 AUDIO
TITLE "The Comb of the Winds (B-Side Amarantine)"
PERFORMER "Enya"
INDEX 00 04:37:08
FILE "13 - The Comb of the Winds (B-Side Amarantine).flac" WAVE
INDEX 01 00:00:00
TRACK 14 AUDIO
TITLE "Adeste, Fideles (Christmas Secrets EP)"
PERFORMER "Enya"
INDEX 00 03:37:07
FILE "14 - Adeste, Fideles (Christmas Secrets EP).flac" WAVE
INDEX 01 00:00:00
TRACK 15 AUDIO
TITLE "The Magic of the Night (Christmas Secrets EP)"
PERFORMER "Enya"
INDEX 00 03:57:35
FILE "15 - The Magic of the Night (Christmas Secrets EP).flac" WAVE
INDEX 01 00:00:00
TRACK 16 AUDIO
TITLE "We Wish You a Merry Christmas (Christmas Secrets EP)"
PERFORMER "Enya"
INDEX 00 03:30:65
FILE "16 - We Wish You a Merry Christmas (Christmas Secrets EP).flac" WAVE
INDEX 01 00:00:00
TRACK 17 AUDIO
TITLE "Christmas Secrets (Christmas Secrets EP)"
PERFORMER "Enya"
INDEX 00 03:40:50
FILE "17 - Christmas Secrets (Christmas Secrets EP).flac" WAVE
INDEX 01 00:00:00

CD 7: ENYA - 2008 - And Winter Came (LE RM 2015) 00:47:48

01. Enya - And Winter Came ... (3:15)
02. Enya - Journey Of The Angels (4:48)
03. Enya - White Is The Winter Night (3:00)
04. Enya - O Come, O Come, Emmanuel (3:40)
05. Enya - Trains And Winter Rains (3:45)
06. Enya - Dreams Are More Precious (4:25)
07. Enya - Last Time By Moonlight (3:58)
08. Enya - One Toy Soldier (3:54)
09. Enya - Stars And Midnight Blue (3:09)
10. Enya - The Spirit Of Christmas Past (4:18)
11. Enya - My! My! Time Flies! (3:03)
12. Enya - Oiche Chiuin (Chorale) (3:48)
13 - Watermark (epilogue) (02:43)

Лог создания рипа

Exact Audio Copy V0.99 prebeta 5 from 4. May 2009
EAC extraction logfile from 10. January 2015, 23:19
Enya / And Winter Came
Used drive  : LITE-ON DVDRW SHM-165S6S   Adapter: 1  ID: 0
Read mode               : Secure
Utilize accurate stream : Yes
Defeat audio cache      : Yes
Make use of C2 pointers : No
Read offset correction                      : 6
Overread into Lead-In and Lead-Out          : No
Fill up missing offset samples with silence : Yes
Delete leading and trailing silent blocks   : No
Null samples used in CRC calculations       : Yes
Used interface                              : Installed external ASPI interface
Gap handling                                : Appended to previous track
Used output format : Internal WAV Routines
Sample format      : 44.100 Hz; 16 Bit; Stereo
TOC of the extracted CD
Track |   Start  |  Length  | Start sector | End sector
---------------------------------------------------------
1  |  0:00.00 |  3:15.63 |         0    |    14687
2  |  3:15.63 |  4:47.20 |     14688    |    36232
3  |  8:03.08 |  3:00.13 |     36233    |    49745
4  | 11:03.21 |  3:40.14 |     49746    |    66259
5  | 14:43.35 |  3:44.56 |     66260    |    83115
6  | 18:28.16 |  4:25.53 |     83116    |   103043
7  | 22:53.69 |  3:57.53 |    103044    |   120871
8  | 26:51.47 |  3:54.22 |    120872    |   138443
9  | 30:45.69 |  3:08.55 |    138444    |   152598
10  | 33:54.49 |  4:18.05 |    152599    |   171953
11  | 38:12.54 |  3:02.69 |    171954    |   185672
12  | 41:15.48 |  3:49.42 |    185673    |   202889
13  | 45:05.15 |  2:42.48 |    202890    |   215087
Track  1
Filename E:\dmp_\Enya - 2008 - And Winter Came\01 - And Winter Came.wav
Pre-gap length  0:00:02.00
Peak level 80.5 %
Track quality 100.0 %
Test CRC D5A7C674
Copy CRC D5A7C674
Copy OK
Track  2
Filename E:\dmp_\Enya - 2008 - And Winter Came\02 - Journey Of The Angels.wav
Peak level 85.3 %
Track quality 100.0 %
Test CRC B70C3B7F
Copy CRC B70C3B7F
Copy OK
Track  3
Filename E:\dmp_\Enya - 2008 - And Winter Came\03 - White Is The Winter Night.wav
Peak level 80.5 %
Track quality 100.0 %
Test CRC 1760739A
Copy CRC 1760739A
Copy OK
Track  4
Filename E:\dmp_\Enya - 2008 - And Winter Came\04 - O Come, O Come, Emmanuel.wav
Peak level 75.4 %
Track quality 100.0 %
Test CRC 1754ABDE
Copy CRC 1754ABDE
Copy OK
Track  5
Filename E:\dmp_\Enya - 2008 - And Winter Came\05 - Trains And Winter Rains.wav
Peak level 81.5 %
Track quality 100.0 %
Test CRC 058D28EC
Copy CRC 058D28EC
Copy OK
Track  6
Filename E:\dmp_\Enya - 2008 - And Winter Came\06 - Dreams Are More Precious.wav
Peak level 82.2 %
Track quality 100.0 %
Test CRC E638F550
Copy CRC E638F550
Copy OK
Track  7
Filename E:\dmp_\Enya - 2008 - And Winter Came\07 - Last Time By Moonlight.wav
Peak level 95.0 %
Track quality 100.0 %
Test CRC F89EE3AC
Copy CRC F89EE3AC
Copy OK
Track  8
Filename E:\dmp_\Enya - 2008 - And Winter Came\08 - One Toy Soldier.wav
Peak level 80.3 %
Track quality 100.0 %
Test CRC D65794D5
Copy CRC D65794D5
Copy OK
Track  9
Filename E:\dmp_\Enya - 2008 - And Winter Came\09 - Stars And Midnight Blue.wav
Peak level 72.4 %
Track quality 100.0 %
Test CRC BF411EF9
Copy CRC BF411EF9
Copy OK
Track 10
Filename E:\dmp_\Enya - 2008 - And Winter Came\10 - The Spirit Of Christmas Past.wav
Peak level 76.4 %
Track quality 100.0 %
Test CRC 79FBAEEA
Copy CRC 79FBAEEA
Copy OK
Track 11
Filename E:\dmp_\Enya - 2008 - And Winter Came\11 - My! My! Time Flies!.wav
Peak level 75.2 %
Track quality 100.0 %
Test CRC 3CAC4F32
Copy CRC 3CAC4F32
Copy OK
Track 12
Filename E:\dmp_\Enya - 2008 - And Winter Came\12 - Oiche Chiuin (Chorale).wav
Peak level 68.3 %
Track quality 100.0 %
Test CRC 33CBB2BB
Copy CRC 33CBB2BB
Copy OK
Track 13
Filename E:\dmp_\Enya - 2008 - And Winter Came\13 - Watermark (epilogue).wav
Pre-gap length  0:00:02.00
Peak level 37.8 %
Track quality 100.0 %
Test CRC F2429038
Copy CRC F2429038
Copy OK
No errors occurred
End of status report

Индексная карта (non-compilant .cue)

REM GENRE "New Age"
REM DATE 2008
REM DISCID BC0B330D
REM COMMENT "ExactAudioCopy v0.99pb5"
PERFORMER "Enya"
TITLE "And Winter Came"
FILE "01 - And Winter Came.flac" WAVE
TRACK 01 AUDIO
TITLE "And Winter Came"
PERFORMER "Enya"
INDEX 01 00:00:00
FILE "02 - Journey Of The Angels.flac" WAVE
TRACK 02 AUDIO
TITLE "Journey Of The Angels"
PERFORMER "Enya"
INDEX 01 00:00:00
FILE "03 - White Is The Winter Night.flac" WAVE
TRACK 03 AUDIO
TITLE "White Is The Winter Night"
PERFORMER "Enya"
INDEX 01 00:00:00
FILE "04 - O Come, O Come, Emmanuel.flac" WAVE
TRACK 04 AUDIO
TITLE "O Come, O Come, Emmanuel"
PERFORMER "Enya"
INDEX 01 00:00:00
FILE "05 - Trains And Winter Rains.flac" WAVE
TRACK 05 AUDIO
TITLE "Trains And Winter Rains"
PERFORMER "Enya"
INDEX 01 00:00:00
FILE "06 - Dreams Are More Precious.flac" WAVE
TRACK 06 AUDIO
TITLE "Dreams Are More Precious"
PERFORMER "Enya"
INDEX 01 00:00:00
FILE "07 - Last Time By Moonlight.flac" WAVE
TRACK 07 AUDIO
TITLE "Last Time By Moonlight"
PERFORMER "Enya"
INDEX 01 00:00:00
FILE "08 - One Toy Soldier.flac" WAVE
TRACK 08 AUDIO
TITLE "One Toy Soldier"
PERFORMER "Enya"
INDEX 01 00:00:00
FILE "09 - Stars And Midnight Blue.flac" WAVE
TRACK 09 AUDIO
TITLE "Stars And Midnight Blue"
PERFORMER "Enya"
INDEX 01 00:00:00
FILE "10 - The Spirit Of Christmas Past.flac" WAVE
TRACK 10 AUDIO
TITLE "The Spirit Of Christmas Past"
PERFORMER "Enya"
INDEX 01 00:00:00
FILE "11 - My! My! Time Flies!.flac" WAVE
TRACK 11 AUDIO
TITLE "My! My! Time Flies!"
PERFORMER "Enya"
INDEX 01 00:00:00
FILE "12 - Oiche Chiuin (Chorale).flac" WAVE
TRACK 12 AUDIO
TITLE "Oiche Chiuin (Chorale)"
PERFORMER "Enya"
INDEX 01 00:00:00
TRACK 13 AUDIO
TITLE "Watermark (epilogue)"
PERFORMER "Enya"
INDEX 00 03:47:42
FILE "13 - Watermark (epilogue).flac" WAVE
INDEX 01 00:00:00
-
Яндекс.Метрика
Рейтинг@Mail.ru