[ Сегодня на трекере фрилич! Идет свободное скачивание без начисления Download ]

Не хочу жениться! (Сергей Никоненко) [1993 г., комедия, SATRip]

 

Создавать темы 26-Янв-2015 04:04

-Не хочу жениться!-- Производство: Россия. «Объединение развлекательных фильмов»
Режиссер: Сергей Никоненко
Жанр: комедия
Год выпуска: 1993 г.
Продолжительность: 01:20:15
В ролях: Евгений Леонов-Гладышев, Светлана Рябова, Михаил Евдокимов, Татьяна Догилева, Татьяна Кравченко, Виктор Ильичёв, Ольга Волкова, Сергей Никоненко, Екатерина Воронина, Светлана Суховей-Описание: Принципиальный холостяк, мастер пластических операций при довольно странных обстоятельствах знакомится с длинноносой милиционершей. Сделав ей операцию, он подобно Пигмалиону, сотворившему Галатею, влюбляется в прекрасное творение рук своих и заявляет: «Я хочу на тебе жениться!»…-Качество видео: SATRip
Контейнер: AVI
Видео кодек: XviD
Аудио кодек: AC3
Видео: 688x512; 845 kbps; 25 fps; 0.096 bit/pixel
Аудио: 224 kbps; 2 ch; 48 kHz
Cубтитры: отсутствуют

Media Info

General
Complete name : D:\Torrent\Ne_hochu_zenitsa_[Pirat.ca].torrent.avi
Format : AVI
Format/Info : Audio Video Interleave
File size : 619 MiB
Duration : 1h 20mn
Overall bit rate : 1 079 Kbps
Writing application : VirtualDubMod 1.5.10.2 (build 2540/release)
Writing library : VirtualDub build 35390/release
Video
ID : 0
Format : MPEG-4 Visual
Format profile : Advanced [email protected]
Format settings, BVOP : 2
Format settings, QPel : No
Format settings, GMC : No warppoints
Format settings, Matrix : Default (H.263)
Muxing mode : Packed bitstream
Codec ID : XVID
Codec ID/Hint : XviD
Duration : 1h 20mn
Bit rate : 845 Kbps
Width : 688 pixels
Height : 512 pixels
Display aspect ratio : 4:3
Frame rate : 25.000 fps
Color space : YUV
Chroma subsampling : 4:2:0
Bit depth : 8 bits
Scan type : Progressive
Compression mode : Lossy
Bits/(Pixel*Frame) : 0.096
Stream size : 485 MiB (78%)
Writing library : XviD 73
Audio
ID : 1
Format : AC-3
Format/Info : Audio Coding 3
Mode extension : CM (complete main)
Format settings, Endianness : Big
Codec ID : 2000
Duration : 1h 20mn
Bit rate mode : Constant
Bit rate : 224 Kbps
Channel(s) : 2 channels
Channel positions : Front: L R
Sampling rate : 48.0 KHz
Bit depth : 16 bits
Compression mode : Lossy
Stream size : 129 MiB (21%)
Alignment : Split accross interleaves
Interleave, duration : 40 ms (1.00 video frame)
Interleave, preload duratio : 500 ms

Скриншоты

Раздача

Раздача с 14.00 до 2.30 (время московское)
Яндекс.Метрика
Рейтинг@Mail.ru