Высоцкий. Последний концерт (1980) HDTV [1080i]

 

Создавать темы 25-Янв-2015 15:50

-Высоцкий. Последний концерт (1980) HDTV [1080i]- Год выпуска: 1980
Жанр: Концерт
Режиссер: Ксения Маринина
Описание фильма:
Советское телевидение никогда не жаловало Высоцкого. Ситуация радикальным образом изменилась только после 1987 года, когда ему посмертно была присуждена Государственная премия СССР. Лишь после этого советские телевизионные начальники позволили себе признать, что Высоцкий писал хорошие стихи и был выдающимся актёром. Увы, было уже поздно...
Не существует ни одной полной видеозаписи спектаклей с участием Владимира Семеновича, ни одного полного сольного концерта. 30 лет тому назад сама идея трансляции песен Высоцкого по советскому телевидению выглядела утопией. На Центральное телевидение Высоцкий был приглашён лишь однажды, в январе 1980 года. На запись Владимира Семеновича пригласила многолетний режиссёр "Кинопанорамы" Ксения Маринина.
22 января 1980 года состоялась запись Высоцкого в Останкино. Политическая ситуация однако была такова, что пустить в эфир этот концерт было нереально. Решили сделать ещё одну запись – с участием режиссёра фильма "Место встречи изменить нельзя" Станислава Говорухина и исполнителем роли Шарапова Владимира Конкина. Только в этом контексте был шанс "протащить" песни Высоцкого на телеэкран. Однако эта программа все равно легла на полку. Прошло долгих семь лет, прежде чем отрывок из этого концерта впервые вышел в эфир "Кинопанорамы".
Телезрители Первого канала увидят последний концерт и монолог Владимира Высоцкого в полном и отреставрированном виде.
Продолжительность: 00:51:10
Качество видео: HDTV [1080i]
Видеокодек: MPEG-4 AVC/H.264
Битрейт видео: ~7 847 kb/s
Размер кадра: 1920x1080
Аудио 1: Русский, АС3, 6 ch, 384 kb/s,
Аудио 2: Русский, MP2, 2 ch, 224 kb/s
Сэмпл: Ссылка

Треклист

Треклист:
1. Вступление. Песни из фильма "Вертикаль"
2. Мы вращаем Землю
3. Почему аборигены съели Кука, или Одна научная загадка
4. Я не люблю...
5. Пожары
6. Утренняя гимнастика
7. Песенка ни про что, или Что случилось в Африке
8. Письмо в редакцию телепередачи "Очевидное - невероятное"
9. Песня о Земле
10. Баллада о Любви

MediaInfo

General
Unique ID : 251686314161073363049228273925133432539 (0xBD590559EEFA6D9AACF32EC1F313F6DB)
Complete name : M:\Торренты\Документальные\Высоцкий_Последний концерт_HD.mkv
Format : Matroska
Format version : Version 4 / Version 2
File size : 3.08 GiB
Duration : 51mn 10s
Overall bit rate : 8 627 Kbps
Encoded date : UTC 2014-07-26 07:47:59
Writing application : mkvmerge v6.6.0 ('The Edge Of The In Between') built on Dec 1 2013 17:55:00
Writing library : libebml v1.3.0 + libmatroska v1.4.1
Video
ID : 1
Format : AVC
Format/Info : Advanced Video Codec
Format profile : [url=mailto:[email protected]][email protected][/url]
Format settings, CABAC : Yes
Format settings, ReFrames : 3 frames
Codec ID : V_MPEG4/ISO/AVC
Bit rate : 7 847 Kbps
Width : 1 920 pixels
Height : 1 080 pixels
Display aspect ratio : 16:9
Frame rate mode : Variable
Original frame rate : 25.000 fps
Standard : PAL
Color space : YUV
Chroma subsampling : 4:2:0
Bit depth : 8 bits
Scan type : Interlaced
Scan order : Top Field First
Default : Yes
Forced : No
Color primaries : BT.709
Transfer characteristics : BT.709
Matrix coefficients : BT.709
Audio #1
ID : 2
Format : MPEG Audio
Format version : Version 1
Format profile : Layer 2
Codec ID : A_MPEG/L2
Codec ID/Hint : MP2
Duration : 51mn 10s
Bit rate mode : Constant
Bit rate : 224 Kbps
Channel(s) : 2 channels
Sampling rate : 48.0 KHz
Compression mode : Lossy
Delay relative to video : 131ms
Stream size : 82.0 MiB (3%)
Default : Yes
Forced : No
Audio #2
ID : 3
Format : AC-3
Format/Info : Audio Coding 3
Mode extension : CM (complete main)
Format settings, Endianness : Big
Codec ID : A_AC3
Duration : 51mn 10s
Bit rate mode : Constant
Bit rate : 384 Kbps
Channel(s) : 6 channels
Channel positions : Front: L C R, Side: L R, LFE
Sampling rate : 48.0 KHz
Bit depth : 16 bits
Compression mode : Lossy
Delay relative to video : 65ms
Stream size : 141 MiB (4%)
Default : No
Forced : No

Доп.информация

За основу релиза взята раздача semenonn в формате .ts и переработана в mkvmerge из пакета MKVToolNix в формат .mkv
--Время раздачи: 24/7 по возможности
Яндекс.Метрика
Рейтинг@Mail.ru