[ Сегодня на трекере фрилич! Идет свободное скачивание без начисления Download ]

Осада / The Siege (1998) BDRip [H.264]

 

Создавать темы 25-Янв-2015 11:17

-Осада / The Siege (1998) BDRip [H.264]-«An enemy they can't see. A nation under siege. A crisis they can't control»- Производство: США / 20th Century Fox Film Corporation, Bedford Falls Productions, Lynda Obst Productions
Жанр: Боевик, Триллер, Драма, Криминал
Режиссер: Эдвард Цвик
Сценарий: Лоуренс Райт, Менно Мейес, Эдвард Цвик
Продюсер: Линда Обст, Эдвард Цвик, Робин Бадд
Актеры: Дензел Вашингтон, Аннетт Бенинг, Брюс Уиллис, Тони Шэлуб, Сами Буажила, Ахмед Бен Ларби, Мосле Мохамед, Лианна Пай, Марк Вэлли, Джек Гуолтни
Описание фильма:
Когда в Бруклине взлетает на воздух автобус и на улицах Нью-Йорка разворачивается кровавый террор, Хаб — Хаббарт, глава Объединенного Антитеррористического Подразделения ФБР получает задание задержать террористов и предъявить им обвинение. Элиза Крафт — тайный оперативный агент ЦРУ. Она обладает ценными источниками информации в среде американцев арабского происхождения и тесно связана с ними.
Хаб и Элиза работают вместе, объединившись для совместной борьбы против террористической группы. Но этого оказывается недостаточно. Требования общественности обеспечить безопасность граждан вынуждают президента США объявить чрезвычайное положение и обратиться за помощью к армии. Генерал Уильям Деверо решительно берется за дело по наведению военного порядка.

Дата мировой премьеры: 6 ноября 1998
Дата выхода DVD релиза: 31 января 2006, «Гемини-Фильм»
Дата выхода Blu-Ray релиза: 27 августа 2009, «Двадцатый Век Фокс СНГ»
Продолжительность: 01:56:05
Качество видео: BDRip
Перевод: Дублированный
Язык субтитров: Русский
Вид субтитров: Вшитые, отключаемые
Видеокодек: MPEG-4 AVC/H.264
Битрейт видео: ~2275 Кбит/сек
Размер кадра: 1024x432
Аудио 1: Русский, AC3 5.1, 384 Кбит/сек, 48 kHz (Дублированный)
Аудио 2: Русский, AC3 2.0, 192 Кбит/сек, 48 kHz (Многоголосый закадровый, Первый канал)
Аудио 3: Русский, AC3 2.0, 192 Кбит/сек, 48 kHz (Двуголосый закадровый, П.Гланц и И.Королёва)
Аудио 4: Русский, AC3 2.0, 192 Кбит/сек, 48 kHz (Авторский, Ю.Живов)
Аудио 5: Английский, AC3 2.0, 192 Кбит/сек, 48 kHz (Оригинал)

MediaInfo:

General
Unique ID : 191229171057588884326757521693879380835 (0x8FDD660FC330159C820041BBAF2D2B63)
Complete name : F:\Downloads\Осада.mkv
Format : Matroska
Format version : Version 4 / Version 2
File size : 2.78 GiB
Duration : 1h 56mn
Overall bit rate : 3 428 Kbps
Encoded date : UTC 2015-01-24 02:26:27
Writing application : mkvmerge v7.0.0 ('Where We Going') 32bit built on Jun 9 2014 15:08:34
Writing library : libebml v1.3.0 + libmatroska v1.4.1
_STATISTICS_WRITING_APP : mkvmerge v7.0.0 ('Where We Going') 32bit built on Jun 9 2014 15:08:34
_STATISTICS_WRITING_DATE_UTC : 2015-01-24 02:26:27
_STATISTICS_TAGS : BPS DURATION NUMBER_OF_FRAMES NUMBER_OF_BYTES
DURATION : 01:56:05.856000000
NUMBER_OF_FRAMES : 217683
NUMBER_OF_BYTES : 167180544
Video
ID : 1
Format : AVC
Format/Info : Advanced Video Codec
Format profile : [url=http://mailto:[email protected]][email protected][/url]
Format settings, CABAC : Yes
Format settings, ReFrames : 8 frames
Codec ID : V_MPEG4/ISO/AVC
Duration : 1h 56mn
Bit rate : 2 275 Kbps
Width : 1 024 pixels
Height : 432 pixels
Display aspect ratio : 2.40:1
Frame rate mode : Constant
Frame rate : 23.976 fps
Color space : YUV
Chroma subsampling : 4:2:0
Bit depth : 8 bits
Scan type : Progressive
Bits/(Pixel*Frame) : 0.214
Stream size : 1.79 GiB (64%)
Title : The Siege
Writing library : x264 core 125 r2208 d9d2288
Encoding settings : cabac=1 / ref=8 / deblock=1:-1:-1 / analyse=0x3:0x133 / me=umh / subme=9 / psy=1 / psy_rd=1.00:0.10 / mixed_ref=1 / me_range=32 / chroma_me=1 / trellis=2 / 8x8dct=1 / cqm=0 / deadzone=21,11 / fast_pskip=0 / chroma_qp_offset=-3 / threads=6 / lookahead_threads=1 / sliced_threads=0 / nr=0 / decimate=1 / interlaced=0 / bluray_compat=0 / constrained_intra=0 / bframes=3 / b_pyramid=2 / b_adapt=2 / b_bias=0 / direct=3 / weightb=1 / open_gop=0 / weightp=2 / keyint=250 / keyint_min=25 / scenecut=40 / intra_refresh=0 / rc_lookahead=60 / rc=2pass / mbtree=1 / bitrate=2275 / ratetol=1.0 / qcomp=0.60 / qpmin=0 / qpmax=69 / qpstep=4 / cplxblur=20.0 / qblur=0.5 / ip_ratio=1.40 / aq=1:1.00
Language : English
Default : Yes
Forced : No
Audio #1
ID : 2
Format : AC-3
Format/Info : Audio Coding 3
Mode extension : CM (complete main)
Format settings, Endianness : Big
Codec ID : A_AC3
Duration : 1h 56mn
Bit rate mode : Constant
Bit rate : 384 Kbps
Channel(s) : 6 channels
Channel positions : Front: L C R, Side: L R, LFE
Sampling rate : 48.0 KHz
Bit depth : 16 bits
Compression mode : Lossy
Stream size : 319 MiB (11%)
Title : Дублированный, BD CEE
Language : Russian
Default : Yes
Forced : No
Audio #2
ID : 3
Format : AC-3
Format/Info : Audio Coding 3
Mode extension : CM (complete main)
Format settings, Endianness : Big
Codec ID : A_AC3
Duration : 1h 56mn
Bit rate mode : Constant
Bit rate : 192 Kbps
Channel(s) : 2 channels
Channel positions : Front: L R
Sampling rate : 48.0 KHz
Bit depth : 16 bits
Compression mode : Lossy
Stream size : 159 MiB (6%)
Title : Многоголосый закадровый, Первый канал
Language : Russian
Default : No
Forced : No
Audio #3
ID : 4
Format : AC-3
Format/Info : Audio Coding 3
Mode extension : CM (complete main)
Format settings, Endianness : Big
Codec ID : A_AC3
Duration : 1h 56mn
Bit rate mode : Constant
Bit rate : 192 Kbps
Channel(s) : 2 channels
Channel positions : Front: L R
Sampling rate : 48.0 KHz
Bit depth : 16 bits
Compression mode : Lossy
Stream size : 159 MiB (6%)
Title : Двуголосый закадровый, П.Гланц и И.Королёва
Language : Russian
Default : No
Forced : No
Audio #4
ID : 5
Format : AC-3
Format/Info : Audio Coding 3
Mode extension : CM (complete main)
Format settings, Endianness : Big
Codec ID : A_AC3
Duration : 1h 56mn
Bit rate mode : Constant
Bit rate : 192 Kbps
Channel(s) : 2 channels
Channel positions : Front: L R
Sampling rate : 48.0 KHz
Bit depth : 16 bits
Compression mode : Lossy
Stream size : 159 MiB (6%)
Title : Авторский, Ю.Живов
Language : Russian
Default : No
Forced : No
Audio #5
ID : 6
Format : AC-3
Format/Info : Audio Coding 3
Mode extension : CM (complete main)
Format settings, Endianness : Big
Codec ID : A_AC3
Duration : 1h 56mn
Bit rate mode : Constant
Bit rate : 192 Kbps
Channel(s) : 2 channels
Channel positions : Front: L R
Sampling rate : 48.0 KHz
Bit depth : 16 bits
Compression mode : Lossy
Stream size : 159 MiB (6%)
Title : Оригинал
Language : English
Default : No
Forced : No
Text
ID : 7
Format : UTF-8
Codec ID : S_TEXT/UTF8
Codec ID/Info : UTF-8 Plain Text
Title : Источник BDRemux SoftSub (srt)
Language : Russian
Default : No
Forced : No

Скриншоты:

[thumb]
Яндекс.Метрика
Рейтинг@Mail.ru