Дежа вю (1989) HDTVRip [H.264]

 

Создавать темы 25-Янв-2015 09:22

-Дежа вю (1989) HDTVRip [H.264]- Производство: Польша, СССР / Одесская киностудия, Студия Фильмов Зебра
Жанр: Комедия
Режиссер: Юлиуш Махульский
Сценарий: Александр Бородянский, Юлиуш Махульский
Актеры: Ежи Штур, Владимир Головин, Николай Караченцов, Виктор Степанов, Галина Петрова, Олег Шкловский, Лиза Махульска, Василий Мищенко, Владимир Белоусов, Всеволод Сафонов
Описание фильма:
20-е годы. В Америке сухой закон. Подпольные торговцы спиртным, которые понесли убытки из-за предательства некоего Микк Нича — Микиты Ничипорука, решают ему отомстить.
В поисках своей жертвы наемный убийца прибывает в Одессу, где Ничипорук организовал самогонный бизнес. И тут у киллера возникают непредвиденные трудности. Одесса — это вам не Америка!..

Продолжительность: 01:44:47
Качество видео: HDTVRip
Субтитры: Отсутствуют
Видеокодек: MPEG-4 AVC/H.264
Битрейт видео: ~2061 Кбит/сек
Размер кадра: 960x576
Аудиокодек: AC3 2.0
Битрейт аудио: 192 Кбит/сек
Сэмпл: Скачать

Знаете ли вы, что...

Польскому актеру Ежи Штуру очень не нравилась эта работа на советской киностудии, вдобавок, именно тогда у него начались проблемы со здоровьем (по возвращению в Польшу у него случился сердечный приступ). Так что выражение омерзения, которое написано на лице американского гангстера Поллака (то есть Поляка) во время его пребывания в Одессе 1920-х годов, обязано своим возникновением не только актёрскому мастерству Штура.
Отец режиссёра фильма Ян Махульский (знаменитый пан Квинта из «Ва-Банка») появляется камео в первых кадрах (предыстории) в роли босса мафии дона Чимино — его образ явно отсылает к дону Вито Корлеоне в исполнении Марлона Брандо в «Крестном отце»: Махульский говорит по-английски с акцентом и с очень невнятной дикцией.
Мафиози, появляющиеся в сценах в Чикаго, носят фамилии видных деятелей Голливуда итальянского происхождения — де Ниро, Чимино, Скорсезе, Пачино, Коппола, де Пальма, Сталлоне.
Другие фильмы, цитируемые режиссером Махульским — «Невероятные приключения мистера Веста в стране большевиков», «Король в Нью-Йорке», «Чапаев», «Мы из Кронштадта», «Оптимистическая трагедия», «Однажды в Америке» Серджио Леоне, и другие.
Cын Владимира Высоцкого Никита Высоцкий появляется в одном из эпизодов, как русский джазмен (с банджо), показывающий Поллаку правильную синкопу.
Точное время действия ленты — 1925 г. Это следует из даты съёмок фильма «Броненосец «Потемкин»», а также того, что Джон Поллак едет из Штатов на одном пароходе с Владимиром Маяковским, американская поездка которого состоялась именно в этом году.
В качестве «Булочной Нечипорука» снималось здание детской библиотеки г. Одесса. Маршрут велогонки на тандемах (согласно тому, что было показано в фильме) проходит весьма замысловато — герой Штура накручивает круг за кругом, появляясь в разных частях города, создавая у зрителя своеобразное представление об одесской географии.

Реценция с кинопоиска от Under the Sky:

У вас тоже дежа вю! (с)
Замечательная, очень тонкая пародия на абсурдную советскую действительность.
История американского гангстера, в поисках «жертвы» попавшего в Одессу. Ему посчастливилось оказаться первым пассажиром маршрута «Нью-Йорк — Одесса», потому руководство руссфлота решило познакомить незадачливого киллера со всеми благами Страны Советов, что, в конечном итоге, и приводит к весьма комичным последствиям.
В этом фильме настроение поднимают все: и достаточно иронично показанная мафия, и сам киллер, который систематически лишается памяти, и даже его сопровождающие, частенько напоминающие главному герою, кто он есть и где он оказался.
Белые интервенты, «Броненосец Потемкин», реки самогона, нелегальное казино, «секс, бокс и джаз» и даже профессор-этномолог — все это делает картину достаточно насыщенной; у зрителя не возникает желания «выйти покурить» или перемотать.
В целом, комедия в лучших традициях советского кино. Поднимает настроение, удивляет, зачастую приводит в замешательство совершенно абсурдными (но от того не менее реальными) моментами.
Не могу не отметить финал отдельно. Развязка действительно достойная. Спасибо режиссеру за 103 минуты юмора и сатиры!
10 из 10

MediaInfo:

General
Unique ID : 252782818896696453763438413274135716133 (0xBE2C33356D3A6E9683697529DDD8E125)
Complete name : F:\Downloads\Дежа Вю.mkv
Format : Matroska
Format version : Version 4 / Version 2
File size : 1.65 GiB
Duration : 1h 44mn
Overall bit rate : 2 255 Kbps
Encoded date : UTC 2015-01-22 14:20:22
Writing application : mkvmerge v7.0.0 ('Where We Going') 32bit built on Jun 9 2014 15:08:34
Writing library : libebml v1.3.0 + libmatroska v1.4.1
DURATION : 01:44:46.976000000
NUMBER_OF_FRAMES : 196468
NUMBER_OF_BYTES : 150887424
_STATISTICS_WRITING_APP : mkvmerge v7.0.0 ('Where We Going') 32bit built on Jun 9 2014 15:08:34
_STATISTICS_WRITING_DATE_UTC : 2015-01-22 14:20:22
_STATISTICS_TAGS : BPS DURATION NUMBER_OF_FRAMES NUMBER_OF_BYTES
Video
ID : 1
Format : AVC
Format/Info : Advanced Video Codec
Format profile : [url=mailto:[email protected]][email protected][/url]
Format settings, CABAC : Yes
Format settings, ReFrames : 8 frames
Codec ID : V_MPEG4/ISO/AVC
Duration : 1h 44mn
Bit rate : 2 061 Kbps
Width : 960 pixels
Height : 576 pixels
Display aspect ratio : 1.667
Frame rate mode : Constant
Frame rate : 25.000 fps
Color space : YUV
Chroma subsampling : 4:2:0
Bit depth : 8 bits
Scan type : Progressive
Bits/(Pixel*Frame) : 0.149
Stream size : 1.48 GiB (89%)
Title : Дежа Вю / Deja Vu / 1989
Writing library : x264 core 125 r2208 d9d2288
Encoding settings : cabac=1 / ref=8 / deblock=1:-1:-1 / analyse=0x3:0x133 / me=umh / subme=9 / psy=1 / psy_rd=1.00:0.10 / mixed_ref=1 / me_range=32 / chroma_me=1 / trellis=2 / 8x8dct=1 / cqm=0 / deadzone=21,11 / fast_pskip=0 / chroma_qp_offset=-3 / threads=6 / lookahead_threads=1 / sliced_threads=0 / nr=0 / decimate=1 / interlaced=0 / bluray_compat=0 / constrained_intra=0 / bframes=3 / b_pyramid=2 / b_adapt=2 / b_bias=0 / direct=3 / weightb=1 / open_gop=0 / weightp=2 / keyint=250 / keyint_min=25 / scenecut=40 / intra_refresh=0 / rc_lookahead=60 / rc=2pass / mbtree=1 / bitrate=2061 / ratetol=1.0 / qcomp=0.60 / qpmin=0 / qpmax=69 / qpstep=4 / cplxblur=20.0 / qblur=0.5 / ip_ratio=1.40 / aq=1:1.00
Language : Russian
Default : Yes
Forced : No
Audio
ID : 2
Format : AC-3
Format/Info : Audio Coding 3
Mode extension : CM (complete main)
Format settings, Endianness : Big
Codec ID : A_AC3
Duration : 1h 44mn
Bit rate mode : Constant
Bit rate : 192 Kbps
Channel(s) : 2 channels
Channel positions : Front: L R
Sampling rate : 48.0 KHz
Bit depth : 16 bits
Compression mode : Lossy
Stream size : 144 MiB (9%)
Title : Русский, AC3, 2 ch, 192 Кбит/с
Language : Russian
Default : Yes
Forced : No
Скриншоты:-Время раздачи: с 14:00 до 02:00 по Москве (выходные круглосуточно), до 10 скачавших
Яндекс.Метрика
Рейтинг@Mail.ru