Animal Planet. Джунгли Северной Америки / Yankee jungle (2014) HDTV [H.264/1080i-LQ] (серии 1-3 из 3)

 

Создавать темы 23-Янв-2015 18:59

-Animal Planet. Джунгли Северной Америки / Yankee jungle (2014) HDTV [H.264/1080i-LQ] [серии 1-3 из 3]- Режиссер / Телекомпания: Animal Planet
Жанр: Документальный, животные
Описание:
Боб и Джулия Майнер возглавляют некоммерческий приют для экзотических животных, расположенный в самой глуши в американском штате Мэн.
Продолжительность: 3 x ~ 00:44:00
Качество видео: HDTV
Перевод: Одноголосый закадровый, профессиональный
Видеокодек: MPEG-4 AVC/H.264
Битрейт видео: ~7000 кб/с
Размер кадра: 1920x1080
Аудиокодек: MP2, 2ch
Битрейт аудио: 224 кб/с

Mediainfo

Общее
Идентификатор : 1 (0x1)
Идентификатор : 1 (0x1) Полное имя : F:\видео\фильмы\Джунгли Северной Америки\01. Джунгли Северной Америки.ts
Полное имя : F:\видео\фильмы\Джунгли Северной Америки\01. Джунгли Северной Америки.ts Формат : MPEG-TS
Формат : MPEG-TS Размер файла : 2,30 Гбайт
Размер файла : 2,30 Гбайт Продолжительность : 44 м.
Продолжительность : 44 м. Режим общего битрейта : Переменный
Режим общего битрейта : Переменный Общий поток : 7469 Кбит/сек
Общий поток : 7469 Кбит/сек
Видео
Идентификатор : 224 (0xE0)
Идентификатор : 224 (0xE0) Идентификатор меню : 1 (0x1)
Идентификатор меню : 1 (0x1) Формат : AVC
Формат : AVC Формат/Информация : Advanced Video Codec
Формат/Информация : Advanced Video Codec Профиль формата : [url=mailto:[email protected]][email protected][/url]
Профиль формата : [url=mailto:[email protected]][email protected][/url] Параметр CABAC формата : Да
Параметр CABAC формата : Да Параметр ReFrames формата : 3 кадра
Параметр ReFrames формата : 3 кадра Идентификатор кодека : 27
Идентификатор кодека : 27 Продолжительность : 44 м.
Продолжительность : 44 м. Вид битрейта : Постоянный
Вид битрейта : Постоянный Битрейт : 7000 Кбит/сек
Битрейт : 7000 Кбит/сек Ширина : 1920 пикселей
Ширина : 1920 пикселей Высота : 1080 пикселей
Высота : 1080 пикселей Соотношение сторон : 16:9
Соотношение сторон : 16:9 Частота кадров : 30,000 кадров/сек
Частота кадров : 30,000 кадров/сек Стандарт вещания : NTSC
Стандарт вещания : NTSC Цветовое пространство : YUV
Цветовое пространство : YUV Субдискретизация насыщенности : 4:2:0
Субдискретизация насыщенности : 4:2:0 Битовая глубина : 8 бит
Битовая глубина : 8 бит Тип развёртки : Прогрессивная
Тип развёртки : Прогрессивная Бит/(Пиксели*Кадры) : 0.113
Бит/(Пиксели*Кадры) : 0.113 Размер потока : 2,11 Гбайт (92%)
Размер потока : 2,11 Гбайт (92%) Основные цвета : BT.709
Основные цвета : BT.709 Характеристики трансфера : BT.709
Характеристики трансфера : BT.709 Коэффициенты матрицы : BT.709
Коэффициенты матрицы : BT.709 colour_range : Limited
colour_range : Limited
Аудио
Идентификатор : 192 (0xC0)
Идентификатор : 192 (0xC0) Идентификатор меню : 1 (0x1)
Идентификатор меню : 1 (0x1) Формат : MPEG Audio
Формат : MPEG Audio Версия формата : Version 1
Версия формата : Version 1 Профиль формата : Layer 2
Профиль формата : Layer 2 Идентификатор кодека : 3
Идентификатор кодека : 3 Продолжительность : 44 м.
Продолжительность : 44 м. Вид битрейта : Постоянный
Вид битрейта : Постоянный Битрейт : 224 Кбит/сек
Битрейт : 224 Кбит/сек Каналы : 2 канала
Каналы : 2 канала Частота : 48,0 КГц
Частота : 48,0 КГц Метод сжатия : С потерями
Метод сжатия : С потерями Задержка видео : 33 мс.
Задержка видео : 33 мс. Размер потока : 70,6 Мбайт (3%)
Размер потока : 70,6 Мбайт (3%) Язык : English
Язык : English
Скриншоты:
-Время раздачи: 24/7. До первых 5 скачавших
Яндекс.Метрика
Рейтинг@Mail.ru