[ Сегодня на трекере фрилич! Идет свободное скачивание без начисления Download ]

Звезда (2002) BDRip [H.264/1080p-LQ]

 

Создавать темы 23-Янв-2015 18:48

-Звезда (2002) BDRip [H.264/1080p-LQ]- Производство: Россия
Жанр: Боевик, Драма, Военный
Режиссер: Николай Лебедев
Актеры: Игорь Петренко, Алексей Панин, Артем Семакин, Алексей Кравченко, Анатолий Гущин, Амаду Мамадаков, Юрий Лагута, Екатерина Вуличенко, Андрей Егоров, Сергей Миллер, ...
Описание фильма:
Лето 1944 года, Красная Армия ведет бои на подступах к западной границе СССР. В тыл врага отправляется группа разведчиков, молодых ребят. Их позывные - «Звезда». Они должны выполнить задание, от которого зависит судьба фронта.
И они выполняют его, но цена этого задания оказывается слишком дорогой. Полный напряжения и драматизма, фильм заставляет вспомнить, кто победил в этой войне.

Продолжительность: 01:37:13
Качество видео: BDRip, 1080p
Видео: MPEG-4 AVC/H.264, ~5980 Kbps, 1920x1080
Аудио: AC3 5.1, 448 Kbps

Mediainfo:

General
Unique ID                                : 222366481518812566205316775006274905225 (0xA74A39FE6D88E2E2A2CA84CE3790E489)
Complete name                            : A:\Про Войну\Звезда (2002) BDRip 1080p.mkv
Format                                   : Matroska
Format version                           : Version 2
File size                                : 4.37 GiB
Duration                                 : 1h 38mn
Overall bit rate                         : 6 346 Kbps
Movie name                               : Звезда (2002) BDRip 1080p от Dimok
Encoded date                             : UTC 2012-01-20 09:51:06
Writing application                      : mkvmerge v5.2.0 ('I can't explain') built on Dec 18 2011 18:12:03
Writing library                          : libebml v1.2.3 + libmatroska v1.3.0
Video
ID                                       : 1
Format                                   : AVC
Format/Info                              : Advanced Video Codec
Format profile                           : [url=mailto:[email protected]][email protected][/url]
Format settings, CABAC                   : Yes
Format settings, ReFrames                : 4 frames
Codec ID                                 : V_MPEG4/ISO/AVC
Duration                                 : 1h 38mn
Bit rate                                 : 5 980 Kbps
Width                                    : 1 920 pixels
Height                                   : 1 080 pixels
Display aspect ratio                     : 16:9
Frame rate mode                          : Constant
Frame rate                               : 23.976 fps
Color space                              : YUV
Chroma subsampling                       : 4:2:0
Bit depth                                : 8 bits
Scan type                                : Progressive
Bits/(Pixel*Frame)                       : 0.120
Stream size                              : 3.98 GiB (91%)
Writing library                          : x264 core 92 r1510 33d382a
Language                                 : Russian
Default                                  : Yes
Forced                                   : No
Audio
ID                                       : 2
Format                                   : AC-3
Format/Info                              : Audio Coding 3
Mode extension                           : CM (complete main)
Format settings, Endianness              : Big
Codec ID                                 : A_AC3
Duration                                 : 1h 38mn
Bit rate mode                            : Constant
Bit rate                                 : 448 Kbps
Channel(s)                               : 6 channels
Channel positions                        : Front: L C R, Side: L R, LFE
Sampling rate                            : 48.0 KHz
Bit depth                                : 16 bits
Compression mode                         : Lossy
Stream size                              : 316 MiB (7%)
Title                                    : Оригинал
Language                                 : Russian
Default                                  : Yes
Forced                                   : No
Text
ID                                       : 3
Format                                   : PGS
Muxing mode                              : zlib
Codec ID                                 : S_HDMV/PGS
Codec ID/Info                            : The same subtitle format used on BDs/HD-DVDs
Language                                 : Russian
Default                                  : Yes
Forced                                   : No
Скриншоты:
-Время раздачи: Ежедневно с 06:00 до 23:00, Сб-Вс возможна круглосуточная раздача
Яндекс.Метрика
Рейтинг@Mail.ru