Ёлки 1914 (2014) HDRip

 

Создавать темы 23-Янв-2015 17:59

-Ёлки 1914 (2014) HDRip- Производство: Россия, Базелевс Продакшн
Жанр: Комедия, Семейный, Драма
Режиссер: Ольга Харина, Тимур Бекмамбетов, Заур Засеев
Актеры: Константин Хабенский, Иван Ургант, Сергей Светлаков, Евгения Брик, Нина Дворжецкая, Ирина Архипова, Альберт Филозов, Елена Плаксина, Антон Богданов, Ян Цапник
Описание фильма:
100 лет назад, Российская империя... Канун Рождества. Декабрьские пробки, праздничные гулянья, роскошные балы и скромные праздники, титулованные дворяне и обычные крестьяне, царская семья и солдаты первой мировой войны, прогрессивные поэты и первые фигуристы - все было по-другому, за исключением ... праздника. Люди готовились, жили, верили, мечтали и ждали настоящего чуда - Рождества!
Перевод: Не требуется (русский) Лицензия
Субтитры: Отсутствуют

Возраст: 6+
Дата мировой премьеры: 25 декабря 2014
Дата российской премьеры: 25 декабря 2014, «Двадцатый Век Фокс СНГ», «Bazelevs Distribution»
Дата выхода DVD релиза: 26 февраля 2015, «CP Дистрибуция»
Продолжительность: 01:47:27
Качество видео: HDRip
Видеокодек: XviD
Битрейт видео: 832kb/s
Размер кадра: 688x288
Аудиокодек: AC3 2.0
Битрейт аудио: 128 Kb/s
Сэмпл: Скачать

MediaInfo:

General
Complete name                  : Elki.4.2014.O.HDRip.700Mb.avi
Format                         : AVI
Format/Info                    : Audio Video Interleave
File size                      : 745 MiB
Duration                       : 1h 47mn
Overall bit rate               : 969 Kbps
Writing application            : VirtualDubMod 1.5.10.3 | [url=http://www.virtualdub-fr.org]www.virtualdub-fr.org[/url] || (build 2550/release)
Writing library                : VirtualDubMod build 2550/release
Video
ID                             : 0
Format                         : MPEG-4 Visual
Format profile                 : Advanced [email protected]
Format settings, BVOP          : 2
Format settings, QPel          : No
Format settings, GMC           : No warppoints
Format settings, Matrix        : Default (MPEG)
Codec ID                       : XVID
Codec ID/Hint                  : XviD
Duration                       : 1h 47mn
Bit rate                       : 832 Kbps
Width                          : 688 pixels
Height                         : 288 pixels
Display aspect ratio           : 2.40:1
Frame rate                     : 24.000 fps
Color space                    : YUV
Chroma subsampling             : 4:2:0
Bit depth                      : 8 bits
Scan type                      : Progressive
Compression mode               : Lossy
Bits/(Pixel*Frame)             : 0.175
Stream size                    : 639 MiB (86%)
Writing library                : XviD 1.2.1 (UTC 2008-12-04)
Audio
ID                             : 1
Format                         : AC-3
Format/Info                    : Audio Coding 3
Mode extension                 : CM (complete main)
Format settings, Endianness    : Big
Codec ID                       : 2000
Duration                       : 1h 47mn
Bit rate mode                  : Constant
Bit rate                       : 128 Kbps
Channel(s)                     : 2 channels
Channel positions              : Front: L R
Sampling rate                  : 48.0 KHz
Bit depth                      : 16 bits
Compression mode               : Lossy
Stream size                    : 98.4 MiB (13%)
Alignment                      : Split accross interleaves
Interleave, duration           : 42 ms (1.00 video frame)
Interleave, preload duration   : 500 ms
Скриншоты:
Яндекс.Метрика
Рейтинг@Mail.ru