[ Сегодня на трекере фрилич! Идет свободное скачивание без начисления Download ]

Ёлки 1914 (2014) BDRip [720p]

 

Создавать темы 23-Янв-2015 17:16

-Ёлки 1914 (2014) BDRip [720p]- Производство: Россия, Базелевс Продакшн
Жанр: Комедия, Семейный, Драма
Режиссер: Ольга Харина, Тимур Бекмамбетов, Заур Засеев
Продюсер: Тимур Бекмамбетов, Сергей Агеев, Ольга Харина
Актеры: Константин Хабенский, Иван Ургант, Сергей Светлаков, Евгения Брик, Нина Дворжецкая, Ирина Архипова, Альберт Филозов, Елена Плаксина, Антон Богданов, Ян Цапник
Описание фильма:
100 лет назад, Российская империя... Канун Рождества. Декабрьские пробки, праздничные гулянья, роскошные балы и скромные праздники, титулованные дворяне и обычные крестьяне, царская семья и солдаты первой мировой войны, прогрессивные поэты и первые фигуристы - все было по-другому, за исключением ... праздника. Люди готовились, жили, верили, мечтали и ждали настоящего чуда - Рождества!
Перевод: Не требуется (русский) Лицензия
Субтитры: Отсутствуют
Возраст: 6+
Дата мировой премьеры: 25 декабря 2014
Дата российской премьеры: 25 декабря 2014, «Двадцатый Век Фокс СНГ», «Bazelevs Distribution»
Дата выхода DVD релиза: 26 февраля 2015, «CP Дистрибуция»
Продолжительность: 01:47:27
Качество видео: BDRip ELEKTRI4KA
Видеокодек: MPEG-4 AVC/H.264
Битрейт видео: 4300 kb/s
Размер кадра: 1280x536
Аудиокодек: AC3 5.1
Битрейт аудио: 448 Kb/s
Сэмпл: Скачать

MI

Общее
Уникальный идентификатор : 237319402988559078303078713487764342923 (0xB28A0DF116CB2001AC53897D6855C88B)
Полное имя : D:\Раздачи\Елки.1914.BDRip.720p.NNM-CLUB.mkv
Формат : Matroska
Версия формата : Version 4 / Version 2
Размер файла : 3,56 Гбайт
Продолжительность : 1 ч. 47 м.
Общий поток : 4747 Кбит/сек
Дата кодирования : UTC 2015-01-22 08:47:13
Программа кодирования : mkvmerge v6.9.1 ('Blue Panther') 64bit built on Apr 18 2014 18:23:38
Библиотека кодирования : libebml v1.3.0 + libmatroska v1.4.1
Видео
Идентификатор : 1
Формат : AVC
Формат/Информация : Advanced Video Codec
Профиль формата : [url=mailto:[email protected]][email protected][/url]
Параметр CABAC формата : Да
Параметр ReFrames формата : 11 кадров
Идентификатор кодека : V_MPEG4/ISO/AVC
Продолжительность : 1 ч. 47 м.
Битрейт : 4300 Кбит/сек
Ширина : 1280 пикселей
Высота : 536 пикселей
Соотношение сторон : 2,40:1
Режим частоты кадров : Постоянный
Частота кадров : 24,000 кадра/сек
Цветовое пространство : YUV
Субдискретизация насыщенности : 4:2:0
Битовая глубина : 8 бит
Тип развёртки : Прогрессивная
Бит/(Пиксели*Кадры) : 0.261
Размер потока : 3,16 Гбайт (89%)
Библиотека кодирования : x264 core 130 r2273 b3065e6
Настройки программы : cabac=1 / ref=11 / deblock=1:-2:-1 / analyse=0x3:0x133 / me=umh / subme=10 / psy=1 / psy_rd=1.00:0.20 / mixed_ref=1 / me_range=24 / chroma_me=1 / trellis=2 / 8x8dct=1 / cqm=0 / deadzone=21,11 / fast_pskip=1 / chroma_qp_offset=-3 / threads=9 / lookahead_threads=1 / sliced_threads=0 / nr=0 / decimate=1 / interlaced=0 / bluray_compat=0 / constrained_intra=0 / bframes=4 / b_pyramid=2 / b_adapt=2 / b_bias=0 / direct=3 / weightb=1 / open_gop=0 / weightp=2 / keyint=250 / keyint_min=23 / scenecut=40 / intra_refresh=0 / rc_lookahead=60 / rc=2pass / mbtree=1 / bitrate=4300 / ratetol=1.0 / qcomp=0.60 / qpmin=0 / qpmax=69 / qpstep=4 / cplxblur=20.0 / qblur=0.5 / ip_ratio=1.40 / aq=1:1.00
Язык : English
Default : Да
Forced : Нет
Аудио
Идентификатор : 2
Формат : AC-3
Формат/Информация : Audio Coding 3
Расширение режима : CM (complete main)
Параметр Endianness формата : Big
Идентификатор кодека : A_AC3
Продолжительность : 1 ч. 47 м.
Вид битрейта : Постоянный
Битрейт : 448 Кбит/сек
Каналы : 6 каналов
Расположение каналов : Front: L C R, Side: L R, LFE
Частота : 48,0 КГц
Битовая глубина : 16 бит
Метод сжатия : С потерями
Размер потока : 344 Мбайт (9%)
Язык : Russian
Default : Да
Forced : Нет
Скриншоты:Время раздачи: 24/7,
до 5 скачавших.
Яндекс.Метрика
Рейтинг@Mail.ru