Hardwell - United We Are (2015) [AAC|WEB-DL|256 кб/с]<Progressive House,Electro House>

 

Создавать темы 23-Янв-2015 17:02

-Hardwell - United We Are (2015)- Год: 2015
Жанр: Progressive House,Electro House
Продолжительность: 00:56:36
Кодек: AAC
Битрейт: 256 кб/с
Тип битрейта: VBR
Треклист:
01. Hardwell - Eclipse
02. Hardwell feat. Jason Derulo - Follow Me
03. Hardwell feat. Harrison - Sally
04. Hardwell feat. Bright Lights - Let Me Be Your Home
05. Hardwell & Tiëst feat. Andreas Moe - Colors
06. Hardwell & Funkerman feat. I-fan - Where Is Here Now
07. Hardwell feat. Amba Shepherd - United We Are
08. Hardwell & W&W feat. Fatman Scoop - Don't Stop The Madness
09. Hardwell feat. Chris Jones - Young Again
10. Hardwell feat. Jonathan Mendelsohn - Echo
11. Hardwell & Joey Dale feat. Luciana - Arcadia
12. Hardwell & DallasK - Area51
13. Hardwell & Headhunterz feat. Haris - Nothing Can Hold Us Down
14. Hardwell feat. Mr. Probz - Birds Fly
15. Hardwell - Dare You (feat. Matthew Koma & Bebe Rexha) (Acoustic Version)

Mediainfo&#58;

Complete name                            : C:\My downloads\Hardwell - United We Are\01 Eclipse.m4a
Format                                   : MPEG-4
Format profile                           : Apple audio with iTunes info
Codec ID                                 : M4A
File size                                : 6,31 Мбайт
Duration                                 : 3 м. 13 с.
Overall bit rate mode                    : Переменный
Overall bit rate                         : 274 Кбит/сек
Album                                    : United We Are
Album/Sorted by                          : United We Are
Album/Performer                          : Hardwell
Part/Position                            : 1
Part/Total                               : 1
Track name                               : Eclipse
Track name/Position                      : 1
Track name/Total                         : 15
Performer                                : Hardwell
Performer/Sorted by                      : Hardwell
Composer                                 : Robbert van de Corput
Publisher                                : RnBXclusive.se
Genre                                    : Dance
ContentType                              : Music
Description                              : RnBXclusive.se
Recorded date                            : 2015
Tagged date                              : UTC 2015-01-19 09:14:36
Copyright                                : RnBXclusive.se
Cover                                    : Yes
Lyrics                                   : RnBXclusive.se
Comment                                  : RnBXclusive.se
AppleStoreCatalogID                      : 957609753
AppleStoreAccount                        : [url=mailto:[email protected]][email protected][/url]
PurchaseDate                             : 2015-01-19 15:04:49
Composer/Sort                            : Robbert van de Corput
ENCODEDBY                                : RnBXclusive.se
LYRICIST                                 : RnBXclusive.se
MIXARTIST                                : RnBXclusive.se
ORIGFILENAME                             : RnBXclusive.se
Title/Sort                               : Eclipse
ownr                                     : Carlos Alfredo Davila Lorenzana
PlayListID                               : 957609747
Аудио
ID                                       : 1
Format                                   : AAC
Format/Info                              : Advanced Audio Codec
Format profile                           : LC
Codec ID                                 : 40
Duration                                 : 3 м. 13 с.
Bit rate mode                            : Переменный
Bit rate                                 : 256 Кбит/сек
Maximum bit rate                         : 312 Кбит/сек
Channel(s)                               : 2 канала
Channel positions                        : Front: L R
Sampling rate                            : 44,1 КГц
Compression mode                         : С потерями
Stream size                              : 6,13 Мбайт (97%)
Language                                 : English
Tagged date                              : UTC 2015-01-19 09:14:36
Общее
Complete name                            : C:\My downloads\Hardwell - United We Are\02 Follow Me.m4a
Format                                   : MPEG-4
Format profile                           : Apple audio with iTunes info
Codec ID                                 : M4A
File size                                : 6,43 Мбайт
Duration                                 : 3 м. 19 с.
Overall bit rate mode                    : Переменный
Overall bit rate                         : 270 Кбит/сек
Album                                    : United We Are
Album/Sorted by                          : United We Are
Album/Performer                          : Hardwell
Part/Position                            : 1
Part/Total                               : 1
Track name                               : Follow Me
Track name/Position                      : 2
Track name/Total                         : 15
Performer                                : Hardwell & Jason Derulo
Performer/Sorted by                      : Hardwell & Jason Derulo
Composer                                 : Robbert van de Corput, James Abrahart & Jason Desrouleaux
Publisher                                : RnBXclusive.se
Genre                                    : Dance
ContentType                              : Music
Description                              : RnBXclusive.se
Recorded date                            : UTC 2015-01-20 08:00:00
Tagged date                              : UTC 2015-01-19 23:00:22
Copyright                                : RnBXclusive.se
Cover                                    : Yes
Lyrics                                   : RnBXclusive.se
Comment                                  : RnBXclusive.se
Rating                                   : None
AppleStoreCatalogID                      : 957609754
AppleStoreAccount                        : [url=mailto:[email protected]][email protected][/url]
PurchaseDate                             : 2015-01-20 04:37:34
Composer/Sort                            : Jason Desrouleaux
ENCODEDBY                                : RnBXclusive.se
LYRICIST                                 : RnBXclusive.se
MIXARTIST                                : RnBXclusive.se
ORIGFILENAME                             : RnBXclusive.se
Title/Sort                               : Follow Me
ownr                                     : Carlos Alfredo Davila Lorenzana
AlbumTitleID                             : 270486655
cmID                                     : 337362946
PlayListID                               : 957609747
GenreID                                  : 17
AppleStoreCountry                        : Unknown Country
Vendor                                   : SonyBMG:isrc:NLS241402165
Аудио
ID                                       : 1
Format                                   : AAC
Format/Info                              : Advanced Audio Codec
Format profile                           : LC
Codec ID                                 : 40
Duration                                 : 3 м. 19 с.
Bit rate mode                            : Переменный
Bit rate                                 : 256 Кбит/сек
Maximum bit rate                         : 393 Кбит/сек
Channel(s)                               : 2 канала
Channel positions                        : Front: L R
Sampling rate                            : 44,1 КГц
Compression mode                         : С потерями
Stream size                              : 6,26 Мбайт (97%)
Language                                 : English
Tagged date                              : UTC 2015-01-19 23:00:22
Общее
Complete name                            : C:\My downloads\Hardwell - United We Are\03 Sally (feat. Harrison).m4a
Format                                   : MPEG-4
Format profile                           : Apple audio with iTunes info
Codec ID                                 : M4A
File size                                : 9,20 Мбайт
Duration                                 : 4 м. 38 с.
Overall bit rate mode                    : Переменный
Overall bit rate                         : 277 Кбит/сек
Album                                    : United We Are
Album/Sorted by                          : United We Are
Album/Performer                          : Hardwell
Part/Position                            : 1
Part/Total                               : 1
Track name                               : Sally (feat. Harrison)
Track name/Position                      : 3
Track name/Total                         : 15
Performer                                : Hardwell
Performer/Sorted by                      : Hardwell
Composer                                 : Robbert van de Corput, H. Shaw & M. Maitland
Publisher                                : RnBXclusive.se
Genre                                    : Dance
ContentType                              : Music
Description                              : RnBXclusive.se
Recorded date                            : 2015
Tagged date                              : UTC 2015-01-19 09:14:49
Copyright                                : RnBXclusive.se
Cover                                    : Yes
Lyrics                                   : RnBXclusive.se
Comment                                  : RnBXclusive.se
Rating                                   : Explicit
AppleStoreCatalogID                      : 957609755
AppleStoreAccount                        : [url=mailto:[email protected]][email protected][/url]
PurchaseDate                             : 2015-01-19 15:04:49
Composer/Sort                            : M. Maitland
ENCODEDBY                                : RnBXclusive.se
LYRICIST                                 : RnBXclusive.se
MIXARTIST                                : RnBXclusive.se
ORIGFILENAME                             : RnBXclusive.se
Title/Sort                               : Sally (feat. Harrison)
ownr                                     : Carlos Alfredo Davila Lorenzana
PlayListID                               : 957609747
Аудио
ID                                       : 1
Format                                   : AAC
Format/Info                              : Advanced Audio Codec
Format profile                           : LC
Codec ID                                 : 40
Duration                                 : 4 м. 38 с.
Bit rate mode                            : Переменный
Bit rate                                 : 272 Кбит/сек
Nominal bit rate                         : 256 Кбит/сек
Maximum bit rate                         : 302 Кбит/сек
Channel(s)                               : 2 канала
Channel positions                        : Front: L R
Sampling rate                            : 44,1 КГц
Compression mode                         : С потерями
Stream size                              : 9,01 Мбайт (98%)
Language                                 : English
Tagged date                              : UTC 2015-01-19 09:14:49
Общее
Complete name                            : C:\My downloads\Hardwell - United We Are\04 Let Me Be Your Home (feat. Bright.m4a
Format                                   : MPEG-4
Format profile                           : Apple audio with iTunes info
Codec ID                                 : M4A
File size                                : 6,86 Мбайт
Duration                                 : 3 м. 35 с.
Overall bit rate mode                    : Переменный
Overall bit rate                         : 267 Кбит/сек
Album                                    : United We Are
Album/Sorted by                          : United We Are
Album/Performer                          : Hardwell
Part/Position                            : 1
Part/Total                               : 1
Track name                               : Let Me Be Your Home (feat. Bright Lights)
Track name/Position                      : 4
Track name/Total                         : 15
Performer                                : Hardwell
Performer/Sorted by                      : Hardwell
Composer                                 : Robbert van de Corput & H. Bright
Publisher                                : RnBXclusive.se
Genre                                    : Dance
ContentType                              : Music
Description                              : RnBXclusive.se
Recorded date                            : UTC 2015-01-20 08:00:00
Encoded date                             : UTC 1970-01-11 17:52:16
Tagged date                              : UTC 2015-01-19 22:59:54
Copyright                                : RnBXclusive.se
Cover                                    : Yes
Lyrics                                   : RnBXclusive.se
Comment                                  : RnBXclusive.se
Rating                                   : None
AppleStoreCatalogID                      : 957609756
AppleStoreAccount                        : [url=mailto:[email protected]][email protected][/url]
PurchaseDate                             : 2015-01-20 04:37:34
Composer/Sort                            : H. Bright
ENCODEDBY                                : RnBXclusive.se
LYRICIST                                 : RnBXclusive.se
MIXARTIST                                : RnBXclusive.se
ORIGFILENAME                             : RnBXclusive.se
Title/Sort                               : Let Me Be Your Home (feat. Bright Lights)
ownr                                     : Carlos Alfredo Davila Lorenzana
AlbumTitleID                             : 270486655
cmID                                     : 394918499
PlayListID                               : 957609747
GenreID                                  : 17
AppleStoreCountry                        : Unknown Country
Vendor                                   : SonyBMG:isrc:NLS241402167
Аудио
ID                                       : 1
Format                                   : AAC
Format/Info                              : Advanced Audio Codec
Format profile                           : LC
Codec ID                                 : 40
Duration                                 : 3 м. 35 с.
Bit rate mode                            : Переменный
Bit rate                                 : 256 Кбит/сек
Maximum bit rate                         : 303 Кбит/сек
Channel(s)                               : 2 канала
Channel positions                        : Front: L R
Sampling rate                            : 44,1 КГц
Compression mode                         : С потерями
Stream size                              : 6,68 Мбайт (97%)
Language                                 : English
Encoded date                             : UTC 1970-01-11 17:52:16
Tagged date                              : UTC 2015-01-19 22:59:54
Общее
Complete name                            : C:\My downloads\Hardwell - United We Are\05 Colors (feat. Andreas Moe).m4a
Format                                   : MPEG-4
Format profile                           : Apple audio with iTunes info
Codec ID                                 : M4A
File size                                : 7,70 Мбайт
Duration                                 : 4 м. 1 с.
Overall bit rate mode                    : Переменный
Overall bit rate                         : 268 Кбит/сек
Album                                    : United We Are
Album/Sorted by                          : United We Are
Album/Performer                          : Hardwell
Part/Position                            : 1
Part/Total                               : 1
Track name                               : Colors (feat. Andreas Moe)
Track name/Position                      : 5
Track name/Total                         : 15
Performer                                : Hardwell & Tiësto
Performer/Sorted by                      : Hardwell & Tiësto
Composer                                 : Andreas Moe, Robbert van de Corput, T. Verwest & M. Reuter
Publisher                                : RnBXclusive.se
Genre                                    : Dance
ContentType                              : Music
Description                              : RnBXclusive.se
Recorded date                            : UTC 2015-01-20 08:00:00
Encoded date                             : UTC 1983-11-08 10:39:12
Tagged date                              : UTC 2015-01-19 23:00:25
Copyright                                : RnBXclusive.se
Cover                                    : Yes
Lyrics                                   : RnBXclusive.se
Comment                                  : RnBXclusive.se
Rating                                   : None
AppleStoreCatalogID                      : 957609757
AppleStoreAccount                        : [url=mailto:[email protected]][email protected][/url]
PurchaseDate                             : 2015-01-20 04:37:34
Composer/Sort                            : M. Reuter
ENCODEDBY                                : RnBXclusive.se
LYRICIST                                 : RnBXclusive.se
MIXARTIST                                : RnBXclusive.se
ORIGFILENAME                             : RnBXclusive.se
Title/Sort                               : Colors (feat. Andreas Moe)
ownr                                     : Carlos Alfredo Davila Lorenzana
AlbumTitleID                             : 270486655
cmID                                     : 140120519
PlayListID                               : 957609747
GenreID                                  : 17
AppleStoreCountry                        : Unknown Country
Vendor                                   : SonyBMG:isrc:NLS241402168
Аудио
ID                                       : 1
Format                                   : AAC
Format/Info                              : Advanced Audio Codec
Format profile                           : LC
Codec ID                                 : 40
Duration                                 : 4 м. 1 с.
Bit rate mode                            : Переменный
Bit rate                                 : 256 Кбит/сек
Maximum bit rate                         : 367 Кбит/сек
Channel(s)                               : 2 канала
Channel positions                        : Front: L R
Sampling rate                            : 44,1 КГц
Compression mode                         : С потерями
Stream size                              : 7,52 Мбайт (98%)
Language                                 : English
Encoded date                             : UTC 1983-11-08 10:39:12
Tagged date                              : UTC 2015-01-19 23:00:25
Общее
Complete name                            : C:\My downloads\Hardwell - United We Are\06 Where Is Here Now (feat. I-Fan).m4a
Format                                   : MPEG-4
Format profile                           : Apple audio with iTunes info
Codec ID                                 : M4A
File size                                : 6,28 Мбайт
Duration                                 : 3 м. 15 с.
Overall bit rate mode                    : Переменный
Overall bit rate                         : 269 Кбит/сек
Album                                    : United We Are
Album/Sorted by                          : United We Are
Album/Performer                          : Hardwell
Part/Position                            : 1
Part/Total                               : 1
Track name                               : Where Is Here Now (feat. I-Fan)
Track name/Position                      : 6
Track name/Total                         : 15
Performer                                : Hardwell & Funkerman
Performer/Sorted by                      : Hardwell & Funkerman
Composer                                 : Robbert van de Corput, A. Van Beek, R. Jansen & I. Perotti
Publisher                                : RnBXclusive.se
Genre                                    : Dance
ContentType                              : Music
Description                              : RnBXclusive.se
Recorded date                            : UTC 2015-01-20 08:00:00
Encoded date                             : UTC 1994-06-27 01:24:32
Tagged date                              : UTC 2015-01-19 23:01:01
Copyright                                : RnBXclusive.se
Cover                                    : Yes
Lyrics                                   : RnBXclusive.se
Comment                                  : RnBXclusive.se
Rating                                   : None
AppleStoreCatalogID                      : 957609758
AppleStoreAccount                        : [url=mailto:[email protected]][email protected][/url]
PurchaseDate                             : 2015-01-20 04:37:34
Composer/Sort                            : I. Perotti
ENCODEDBY                                : RnBXclusive.se
LYRICIST                                 : RnBXclusive.se
MIXARTIST                                : RnBXclusive.se
ORIGFILENAME                             : RnBXclusive.se
Title/Sort                               : Where Is Here Now (feat. I-Fan)
ownr                                     : Carlos Alfredo Davila Lorenzana
AlbumTitleID                             : 270486655
cmID                                     : 950296568
PlayListID                               : 957609747
GenreID                                  : 17
AppleStoreCountry                        : Unknown Country
Vendor                                   : SonyBMG:isrc:NLS241402169
Аудио
ID                                       : 1
Format                                   : AAC
Format/Info                              : Advanced Audio Codec
Format profile                           : LC
Codec ID                                 : 40
Duration                                 : 3 м. 15 с.
Bit rate mode                            : Переменный
Bit rate                                 : 256 Кбит/сек
Maximum bit rate                         : 451 Кбит/сек
Channel(s)                               : 2 канала
Channel positions                        : Front: L R
Sampling rate                            : 44,1 КГц
Compression mode                         : С потерями
Stream size                              : 6,10 Мбайт (97%)
Language                                 : English
Encoded date                             : UTC 1994-06-27 01:24:32
Tagged date                              : UTC 2015-01-19 23:01:01
Общее
Complete name                            : C:\My downloads\Hardwell - United We Are\07 United We Are (feat. Amba Shepher.m4a
Format                                   : MPEG-4
Format profile                           : Apple audio with iTunes info
Codec ID                                 : M4A
File size                                : 11,2 Мбайт
Duration                                 : 5 м. 51 с.
Overall bit rate mode                    : Переменный
Overall bit rate                         : 267 Кбит/сек
Album                                    : United We Are
Album/Sorted by                          : United We Are
Album/Performer                          : Hardwell
Part/Position                            : 1
Part/Total                               : 1
Track name                               : United We Are (feat. Amba Shepherd)
Track name/Position                      : 7
Track name/Total                         : 15
Performer                                : Hardwell
Performer/Sorted by                      : Hardwell
Composer                                 : Robbert van de Corput & Amba Sheperd
Publisher                                : RnBXclusive.se
Genre                                    : Dance
ContentType                              : Music
Description                              : RnBXclusive.se
Recorded date                            : UTC 2015-01-20 08:00:00
Encoded date                             : UTC 2013-02-03 09:13:52
Tagged date                              : UTC 2015-01-19 23:00:33
Copyright                                : RnBXclusive.se
Cover                                    : Yes
Lyrics                                   : RnBXclusive.se
Comment                                  : RnBXclusive.se
Rating                                   : None
AppleStoreCatalogID                      : 957609759
AppleStoreAccount                        : [url=mailto:[email protected]][email protected][/url]
PurchaseDate                             : 2015-01-20 04:37:34
Composer/Sort                            : Amba Sheperd
ENCODEDBY                                : RnBXclusive.se
LYRICIST                                 : RnBXclusive.se
MIXARTIST                                : RnBXclusive.se
ORIGFILENAME                             : RnBXclusive.se
Title/Sort                               : United We Are (feat. Amba Shepherd)
ownr                                     : Carlos Alfredo Davila Lorenzana
AlbumTitleID                             : 270486655
cmID                                     : 338079167
PlayListID                               : 957609747
GenreID                                  : 17
AppleStoreCountry                        : Unknown Country
Vendor                                   : SonyBMG:isrc:NLS241402170
Аудио
ID                                       : 1
Format                                   : AAC
Format/Info                              : Advanced Audio Codec
Format profile                           : LC
Codec ID                                 : 40
Duration                                 : 5 м. 51 с.
Bit rate mode                            : Переменный
Bit rate                                 : 256 Кбит/сек
Maximum bit rate                         : 409 Кбит/сек
Channel(s)                               : 2 канала
Channel positions                        : Front: L R
Sampling rate                            : 44,1 КГц
Compression mode                         : С потерями
Stream size                              : 11,0 Мбайт (98%)
Language                                 : English
Encoded date                             : UTC 2013-02-03 09:13:52
Tagged date                              : UTC 2015-01-19 23:00:33
Общее
Complete name                            : C:\My downloads\Hardwell - United We Are\08 Don't Stop the Madness (feat. Fat.m4a
Format                                   : MPEG-4
Format profile                           : Apple audio with iTunes info
Codec ID                                 : M4A
File size                                : 7,50 Мбайт
Duration                                 : 3 м. 45 с.
Overall bit rate mode                    : Переменный
Overall bit rate                         : 279 Кбит/сек
Album                                    : United We Are
Album/Sorted by                          : United We Are
Album/Performer                          : Hardwell
Part/Position                            : 1
Part/Total                               : 1
Track name                               : Don't Stop the Madness (feat. Fatman Scoop)
Track name/Position                      : 8
Track name/Total                         : 15
Performer                                : Hardwell & W&W
Performer/Sorted by                      : Hardwell & W&W
Composer                                 : Robbert van de Corput, Willem van Hanegem, Wardt van der Harst, I. Freeman, D. Boselovic & N. Ditri
Publisher                                : RnBXclusive.se
Genre                                    : Dance
ContentType                              : Music
Description                              : RnBXclusive.se
Recorded date                            : UTC 2015-01-20 08:00:00
Encoded date                             : UTC 2026-05-20 21:40:32
Tagged date                              : UTC 2015-01-19 09:06:35
Copyright                                : RnBXclusive.se
Cover                                    : Yes
Lyrics                                   : RnBXclusive.se
Comment                                  : RnBXclusive.se
Rating                                   : None
AppleStoreCatalogID                      : 957609760
AppleStoreAccount                        : [url=mailto:[email protected]][email protected][/url]
PurchaseDate                             : 2015-01-19 15:04:49
Composer/Sort                            : N. Ditri
ENCODEDBY                                : RnBXclusive.se
LYRICIST                                 : RnBXclusive.se
MIXARTIST                                : RnBXclusive.se
ORIGFILENAME                             : RnBXclusive.se
Title/Sort                               : Don't Stop the Madness (feat. Fatman Scoop)
ownr                                     : Carlos Alfredo Davila Lorenzana
AlbumTitleID                             : 270486655
cmID                                     : 500950472
PlayListID                               : 957609747
GenreID                                  : 17
AppleStoreCountry                        : Unknown Country
Vendor                                   : SonyBMG:isrc:NLS241402171
Аудио
ID                                       : 1
Format                                   : AAC
Format/Info                              : Advanced Audio Codec
Format profile                           : LC
Codec ID                                 : 40
Duration                                 : 3 м. 45 с.
Bit rate mode                            : Переменный
Bit rate                                 : 270 Кбит/сек
Nominal bit rate                         : 256 Кбит/сек
Maximum bit rate                         : 450 Кбит/сек
Channel(s)                               : 2 канала
Channel positions                        : Front: L R
Sampling rate                            : 44,1 КГц
Compression mode                         : С потерями
Stream size                              : 7,25 Мбайт (97%)
Language                                 : English
Encoded date                             : UTC 2026-05-20 21:40:32
Tagged date                              : UTC 2015-01-19 09:06:35
Общее
Complete name                            : C:\My downloads\Hardwell - United We Are\09 Young Again (feat. Chris Jones).m4a
Format                                   : MPEG-4
Format profile                           : Apple audio with iTunes info
Codec ID                                 : M4A
File size                                : 7,16 Мбайт
Duration                                 : 3 м. 39 с.
Overall bit rate mode                    : Переменный
Overall bit rate                         : 273 Кбит/сек
Album                                    : United We Are
Album/Sorted by                          : United We Are
Album/Performer                          : Hardwell
Part/Position                            : 1
Part/Total                               : 1
Track name                               : Young Again (feat. Chris Jones)
Track name/Position                      : 9
Track name/Total                         : 15
Performer                                : Hardwell
Performer/Sorted by                      : Hardwell
Composer                                 : Chris Jones, Robbert van de Corput & Willem Bakker
Publisher                                : RnBXclusive.se
Genre                                    : Dance
ContentType                              : Music
Description                              : RnBXclusive.se
Recorded date                            : UTC 2015-01-20 08:00:00
Tagged date                              : UTC 2015-01-19 23:01:10
Copyright                                : RnBXclusive.se
Cover                                    : Yes
Lyrics                                   : RnBXclusive.se
Comment                                  : RnBXclusive.se
Rating                                   : None
AppleStoreCatalogID                      : 957609761
AppleStoreAccount                        : [url=mailto:[email protected]][email protected][/url]
PurchaseDate                             : 2015-01-20 04:37:34
Composer/Sort                            : Willem Bakker
ENCODEDBY                                : RnBXclusive.se
LYRICIST                                 : RnBXclusive.se
MIXARTIST                                : RnBXclusive.se
ORIGFILENAME                             : RnBXclusive.se
Title/Sort                               : Young Again (feat. Chris Jones)
ownr                                     : Carlos Alfredo Davila Lorenzana
AlbumTitleID                             : 270486655
cmID                                     : 401641116
PlayListID                               : 957609747
GenreID                                  : 17
AppleStoreCountry                        : Unknown Country
Vendor                                   : SonyBMG:isrc:NLS241402172
Аудио
ID                                       : 1
Format                                   : AAC
Format/Info                              : Advanced Audio Codec
Format profile                           : LC
Codec ID                                 : 40
Duration                                 : 3 м. 39 с.
Bit rate mode                            : Переменный
Bit rate                                 : 256 Кбит/сек
Maximum bit rate                         : 360 Кбит/сек
Channel(s)                               : 2 канала
Channel positions                        : Front: L R
Sampling rate                            : 44,1 КГц
Compression mode                         : С потерями
Stream size                              : 6,98 Мбайт (97%)
Language                                 : English
Tagged date                              : UTC 2015-01-19 23:01:10
Общее
Complete name                            : C:\My downloads\Hardwell - United We Are\10 Echo (feat. Jonathan Mendelsohn).m4a
Format                                   : MPEG-4
Format profile                           : Apple audio with iTunes info
Codec ID                                 : M4A
File size                                : 10,1 Мбайт
Duration                                 : 5 м. 8 с.
Overall bit rate mode                    : Переменный
Overall bit rate                         : 275 Кбит/сек
Album                                    : United We Are
Album/Sorted by                          : United We Are
Album/Performer                          : Hardwell
Part/Position                            : 1
Part/Total                               : 1
Track name                               : Echo (feat. Jonathan Mendelsohn)
Track name/Position                      : 10
Track name/Total                         : 15
Performer                                : Hardwell
Performer/Sorted by                      : Hardwell
Composer                                 : Robbert van de Corput, J. Mendelsohn & C. Brunwasser
Publisher                                : RnBXclusive.se
Genre                                    : Dance
ContentType                              : Music
Description                              : RnBXclusive.se
Recorded date                            : UTC 2015-01-20 08:00:00
Tagged date                              : UTC 2015-01-19 23:01:49
Copyright                                : RnBXclusive.se
Cover                                    : Yes
Lyrics                                   : RnBXclusive.se
Comment                                  : RnBXclusive.se
Rating                                   : None
AppleStoreCatalogID                      : 957609762
AppleStoreAccount                        : [url=mailto:[email protected]][email protected][/url]
PurchaseDate                             : 2015-01-20 04:37:34
Composer/Sort                            : C. Brunwasser
ENCODEDBY                                : RnBXclusive.se
LYRICIST                                 : RnBXclusive.se
MIXARTIST                                : RnBXclusive.se
ORIGFILENAME                             : RnBXclusive.se
Title/Sort                               : Echo (feat. Jonathan Mendelsohn)
ownr                                     : Carlos Alfredo Davila Lorenzana
AlbumTitleID                             : 270486655
cmID                                     : 950296577
PlayListID                               : 957609747
GenreID                                  : 17
AppleStoreCountry                        : Unknown Country
Vendor                                   : SonyBMG:isrc:NLS241402173
Аудио
ID                                       : 1
Format                                   : AAC
Format/Info                              : Advanced Audio Codec
Format profile                           : LC
Codec ID                                 : 40
Duration                                 : 5 м. 8 с.
Bit rate mode                            : Переменный
Bit rate                                 : 270 Кбит/сек
Nominal bit rate                         : 256 Кбит/сек
Maximum bit rate                         : 315 Кбит/сек
Channel(s)                               : 2 канала
Channel positions                        : Front: L R
Sampling rate                            : 44,1 КГц
Compression mode                         : С потерями
Stream size                              : 9,92 Мбайт (98%)
Language                                 : English
Tagged date                              : UTC 2015-01-19 23:01:49
Общее
Complete name                            : C:\My downloads\Hardwell - United We Are\11 Arcadia (feat. Luciana).m4a
Format                                   : MPEG-4
Format profile                           : Apple audio with iTunes info
Codec ID                                 : M4A
File size                                : 6,20 Мбайт
Duration                                 : 3 м. 13 с.
Overall bit rate mode                    : Переменный
Overall bit rate                         : 268 Кбит/сек
Album                                    : United We Are
Album/Sorted by                          : United We Are
Album/Performer                          : Hardwell
Part/Position                            : 1
Part/Total                               : 1
Track name                               : Arcadia (feat. Luciana)
Track name/Position                      : 11
Track name/Total                         : 15
Performer                                : Hardwell & Joey Dale
Performer/Sorted by                      : Hardwell & Joey Dale
Composer                                 : Robbert van de Corput, J. Daleboudt, Luciana Caporaso & N. Clow
Publisher                                : RnBXclusive.se
Genre                                    : Dance
ContentType                              : Music
Description                              : RnBXclusive.se
Recorded date                            : UTC 2015-01-20 08:00:00
Tagged date                              : UTC 2015-01-19 23:02:55
Copyright                                : RnBXclusive.se
Cover                                    : Yes
Lyrics                                   : RnBXclusive.se
Comment                                  : RnBXclusive.se
Rating                                   : None
AppleStoreCatalogID                      : 957609763
AppleStoreAccount                        : [url=mailto:[email protected]][email protected][/url]
PurchaseDate                             : 2015-01-20 04:37:34
Composer/Sort                            : N. Clow
ENCODEDBY                                : RnBXclusive.se
LYRICIST                                 : RnBXclusive.se
MIXARTIST                                : RnBXclusive.se
ORIGFILENAME                             : RnBXclusive.se
Title/Sort                               : Arcadia (feat. Luciana)
ownr                                     : Carlos Alfredo Davila Lorenzana
AlbumTitleID                             : 270486655
cmID                                     : 416250900
PlayListID                               : 957609747
GenreID                                  : 17
AppleStoreCountry                        : Unknown Country
Vendor                                   : SonyBMG:isrc:NLS241402174
Аудио
ID                                       : 1
Format                                   : AAC
Format/Info                              : Advanced Audio Codec
Format profile                           : LC
Codec ID                                 : 40
Duration                                 : 3 м. 13 с.
Bit rate mode                            : Переменный
Bit rate                                 : 256 Кбит/сек
Maximum bit rate                         : 324 Кбит/сек
Channel(s)                               : 2 канала
Channel positions                        : Front: L R
Sampling rate                            : 44,1 КГц
Compression mode                         : С потерями
Stream size                              : 6,02 Мбайт (97%)
Language                                 : English
Tagged date                              : UTC 2015-01-19 23:02:55
Общее
Complete name                            : C:\My downloads\Hardwell - United We Are\12 Area51.m4a
Format                                   : MPEG-4
Format profile                           : Apple audio with iTunes info
Codec ID                                 : M4A
File size                                : 5,83 Мбайт
Duration                                 : 3 м. 0 с.
Overall bit rate mode                    : Переменный
Overall bit rate                         : 271 Кбит/сек
Album                                    : United We Are
Album/Sorted by                          : United We Are
Album/Performer                          : Hardwell
Part/Position                            : 1
Part/Total                               : 1
Track name                               : Area51
Track name/Position                      : 12
Track name/Total                         : 15
Performer                                : Hardwell & DallasK
Performer/Sorted by                      : Hardwell & DallasK
Composer                                 : Robbert van de Corput & Dallas Koehlke
Publisher                                : RnBXclusive.se
Genre                                    : Dance
ContentType                              : Music
Description                              : RnBXclusive.se
Recorded date                            : UTC 2015-01-20 08:00:00
Tagged date                              : UTC 2015-01-19 23:03:02
Copyright                                : RnBXclusive.se
Cover                                    : Yes
Lyrics                                   : RnBXclusive.se
Comment                                  : RnBXclusive.se
Rating                                   : None
AppleStoreCatalogID                      : 957609764
AppleStoreAccount                        : [url=mailto:[email protected]][email protected][/url]
PurchaseDate                             : 2015-01-20 04:37:34
Composer/Sort                            : Dallas Koehlke
ENCODEDBY                                : RnBXclusive.se
LYRICIST                                 : RnBXclusive.se
MIXARTIST                                : RnBXclusive.se
ORIGFILENAME                             : RnBXclusive.se
Title/Sort                               : Area51
ownr                                     : Carlos Alfredo Davila Lorenzana
AlbumTitleID                             : 270486655
cmID                                     : 471572557
PlayListID                               : 957609747
GenreID                                  : 17
AppleStoreCountry                        : Unknown Country
Vendor                                   : SonyBMG:isrc:NLS241402176
Аудио
ID                                       : 1
Format                                   : AAC
Format/Info                              : Advanced Audio Codec
Format profile                           : LC
Codec ID                                 : 40
Duration                                 : 3 м. 0 с.
Bit rate mode                            : Переменный
Bit rate                                 : 256 Кбит/сек
Maximum bit rate                         : 306 Кбит/сек
Channel(s)                               : 2 канала
Channel positions                        : Front: L R
Sampling rate                            : 44,1 КГц
Compression mode                         : С потерями
Stream size                              : 5,65 Мбайт (97%)
Language                                 : English
Tagged date                              : UTC 2015-01-19 23:03:02
Общее
Complete name                            : C:\My downloads\Hardwell - United We Are\13 Nothing Can Hold Us Down (feat. H.m4a
Format                                   : MPEG-4
Format profile                           : Apple audio with iTunes info
Codec ID                                 : M4A
File size                                : 6,67 Мбайт
Duration                                 : 3 м. 18 с.
Overall bit rate mode                    : Переменный
Overall bit rate                         : 281 Кбит/сек
Album                                    : United We Are
Album/Sorted by                          : United We Are
Album/Performer                          : Hardwell
Part/Position                            : 1
Part/Total                               : 1
Track name                               : Nothing Can Hold Us Down (feat. Haris)
Track name/Position                      : 13
Track name/Total                         : 15
Performer                                : Hardwell & Headhunterz
Performer/Sorted by                      : Hardwell & Headhunterz
Composer                                 : Robbert van de Corput, Willem Rebergen, H. Alagic & A. Alagic
Publisher                                : RnBXclusive.se
Genre                                    : Dance
ContentType                              : Music
Description                              : RnBXclusive.se
Recorded date                            : UTC 2015-01-20 08:00:00
Tagged date                              : UTC 2015-01-19 23:03:14
Copyright                                : RnBXclusive.se
Cover                                    : Yes
Lyrics                                   : RnBXclusive.se
Comment                                  : RnBXclusive.se
Rating                                   : None
AppleStoreCatalogID                      : 957609765
AppleStoreAccount                        : [url=mailto:[email protected]][email protected][/url]
PurchaseDate                             : 2015-01-20 04:37:34
Composer/Sort                            : A. Alagic
ENCODEDBY                                : RnBXclusive.se
LYRICIST                                 : RnBXclusive.se
MIXARTIST                                : RnBXclusive.se
ORIGFILENAME                             : RnBXclusive.se
Title/Sort                               : Nothing Can Hold Us Down (feat. Haris)
ownr                                     : Carlos Alfredo Davila Lorenzana
AlbumTitleID                             : 270486655
cmID                                     : 950296586
PlayListID                               : 957609747
GenreID                                  : 17
AppleStoreCountry                        : Unknown Country
Vendor                                   : SonyBMG:isrc:NLS241402177
Аудио
ID                                       : 1
Format                                   : AAC
Format/Info                              : Advanced Audio Codec
Format profile                           : LC
Codec ID                                 : 40
Duration                                 : 3 м. 18 с.
Bit rate mode                            : Переменный
Bit rate                                 : 274 Кбит/сек
Nominal bit rate                         : 256 Кбит/сек
Maximum bit rate                         : 292 Кбит/сек
Channel(s)                               : 2 канала
Channel positions                        : Front: L R
Sampling rate                            : 44,1 КГц
Compression mode                         : С потерями
Stream size                              : 6,50 Мбайт (97%)
Language                                 : English
Tagged date                              : UTC 2015-01-19 23:03:14
Общее
Complete name                            : C:\My downloads\Hardwell - United We Are\14 Birds Fly (feat. Mr. Probz).m4a
Format                                   : MPEG-4
Format profile                           : Apple audio with iTunes info
Codec ID                                 : M4A
File size                                : 6,70 Мбайт
Duration                                 : 3 м. 27 с.
Overall bit rate mode                    : Переменный
Overall bit rate                         : 270 Кбит/сек
Album                                    : United We Are
Album/Sorted by                          : United We Are
Album/Performer                          : Hardwell
Part/Position                            : 1
Part/Total                               : 1
Track name                               : Birds Fly (feat. Mr. Probz)
Track name/Position                      : 14
Track name/Total                         : 15
Performer                                : Hardwell
Performer/Sorted by                      : Hardwell
Composer                                 : Robbert van de Corput, D. Stehr, G. Early, B. S. Isaac & P. R. Hamilton
Publisher                                : RnBXclusive.se
Genre                                    : Dance
ContentType                              : Music
Description                              : RnBXclusive.se
Recorded date                            : UTC 2015-01-20 08:00:00
Tagged date                              : UTC 2015-01-19 23:03:20
Copyright                                : RnBXclusive.se
Cover                                    : Yes
Lyrics                                   : RnBXclusive.se
Comment                                  : RnBXclusive.se
Rating                                   : None
AppleStoreCatalogID                      : 957609766
AppleStoreAccount                        : [url=mailto:[email protected]][email protected][/url]
PurchaseDate                             : 2015-01-20 04:37:34
Composer/Sort                            : P. R. Hamilton
ENCODEDBY                                : RnBXclusive.se
LYRICIST                                 : RnBXclusive.se
MIXARTIST                                : RnBXclusive.se
ORIGFILENAME                             : RnBXclusive.se
Title/Sort                               : Birds Fly (feat. Mr. Probz)
ownr                                     : Carlos Alfredo Davila Lorenzana
AlbumTitleID                             : 270486655
cmID                                     : 953082708
PlayListID                               : 957609747
GenreID                                  : 17
AppleStoreCountry                        : Unknown Country
Vendor                                   : SonyBMG:isrc:NLS241402178
Аудио
ID                                       : 1
Format                                   : AAC
Format/Info                              : Advanced Audio Codec
Format profile                           : LC
Codec ID                                 : 40
Duration                                 : 3 м. 27 с.
Bit rate mode                            : Переменный
Bit rate                                 : 256 Кбит/сек
Maximum bit rate                         : 373 Кбит/сек
Channel(s)                               : 2 канала
Channel positions                        : Front: L R
Sampling rate                            : 44,1 КГц
Compression mode                         : С потерями
Stream size                              : 6,52 Мбайт (97%)
Language                                 : English
Tagged date                              : UTC 2015-01-19 23:03:20
Общее
Complete name                            : C:\My downloads\Hardwell - United We Are\15 Dare You (feat. Matthew Koma & Be.m4a
Format                                   : MPEG-4
Format profile                           : Apple audio with iTunes info
Codec ID                                 : M4A
File size                                : 6,02 Мбайт
Duration                                 : 3 м. 6 с.
Overall bit rate mode                    : Переменный
Overall bit rate                         : 270 Кбит/сек
Album                                    : United We Are
Album/Sorted by                          : United We Are
Album/Performer                          : Hardwell
Part/Position                            : 1
Part/Total                               : 1
Track name                               : Dare You (feat. Matthew Koma & Bebe Rexha) [Acoustic Version]
Track name/Position                      : 15
Track name/Total                         : 15
Performer                                : Hardwell
Performer/Sorted by                      : Hardwell
Composer                                 : Matthew Koma & Robbert van de Corput
Publisher                                : RnBXclusive.se
Genre                                    : Dance
ContentType                              : Music
Description                              : RnBXclusive.se
Recorded date                            : UTC 2015-01-20 08:00:00
Encoded date                             : UTC 1981-09-23 11:30:24
Tagged date                              : UTC 2015-01-19 23:03:43
Copyright                                : RnBXclusive.se
Cover                                    : Yes
Lyrics                                   : RnBXclusive.se
Comment                                  : RnBXclusive.se
Rating                                   : None
AppleStoreCatalogID                      : 957609767
AppleStoreAccount                        : [url=mailto:[email protected]][email protected][/url]
PurchaseDate                             : 2015-01-20 04:37:34
Composer/Sort                            : Robbert van de Corput
ENCODEDBY                                : RnBXclusive.se
LYRICIST                                 : RnBXclusive.se
MIXARTIST                                : RnBXclusive.se
ORIGFILENAME                             : RnBXclusive.se
Title/Sort                               : Dare You (feat. Matthew Koma & Bebe Rexha) [Acoustic Version]
ownr                                     : Carlos Alfredo Davila Lorenzana
AlbumTitleID                             : 270486655
cmID                                     : 374265375
PlayListID                               : 957609747
GenreID                                  : 17
AppleStoreCountry                        : Unknown Country
Vendor                                   : SonyBMG:isrc:NLS241402213
Аудио
ID                                       : 1
Format                                   : AAC
Format/Info                              : Advanced Audio Codec
Format profile                           : LC
Codec ID                                 : 40
Duration                                 : 3 м. 6 с.
Bit rate mode                            : Переменный
Bit rate                                 : 256 Кбит/сек
Maximum bit rate                         : 411 Кбит/сек
Channel(s)                               : 2 канала
Channel positions                        : Front: L R
Sampling rate                            : 44,1 КГц
Compression mode                         : С потерями
Stream size                              : 5,85 Мбайт (97%)
Language                                 : English
Encoded date                             : UTC 1981-09-23 11:30:24
Tagged date                              : UTC 2015-01-19 23:03:43
Время раздачи: до 10-ти скачавших
Яндекс.Метрика
Рейтинг@Mail.ru