Золотая невеста (Роман Барабаш) [2014 г., комедия, WEB-DLRip]

 

Создавать темы 23-Янв-2015 04:48

-Золотая невеста-- Производство: Россия
Год выпуска: 2014 г.
Жанр: комедия
Продолжительность: 01:29:36-Режиссер: Роман Барабаш-В ролях: Глафира Тарханова, Александр Ратников, Олег Масленников-Войтов, Анастасия Пронина, Юлия Гришина, Ирина Домнинская, Виталий Альшанский, Вадим Александров, Алена Проданова-Описание: Деревенские старик со старухой берутся выдать замуж городскую племянницу, засидевшуюся в девках, когда та приезжает погостить на новогодние каникулы. Чтобы привлечь интерес к её неказистой персоне, оборотистая бабка без ведома племяшки распускает слух, будто Надя — вдова-миллионерша, и скоро получит наследство от умершего мужа-бизнесмена.
У каждого из объявившихся женихов свои планы на Надино «наследство». Журналист Долгобродов хочет сделать сенсационный материал о вдове знаменитого миллионера, которая почему-то прячется в деревне. Он пытается на волне этой сенсации получить работу в Москве. Художник Тимофей, выбрав в спутницы жизни богатую вдову, хочет добиться мировой славы. Стареющему ловеласу Кулькову всего-то и нужно от Нади, что денег на починку избы. При этом каждый из кандидатов считает Надю скучной серой мышкой. И только после того, как она влюбляется по-настоящему и преображается, женихи понимают, что проворонили настоящее сокровище. Корыстные помыслы сменяются искренней симпатией, и когда выясняется, что никакого наследства нет и в помине, многие по-прежнему не прочь предложить ей руку и сердце.- -Качество видео: WEB-DLRip
Контейнер: AVI
Видео кодек: XviD
Аудио кодек: AC3
Видео: 720x400, 25,000 fps, 1983 kbps avg, 0.275 bit/pixel
Аудио: 48 kHz, AC3 Dolby Digital, 2 ch, 192 kbps
Cубтитры: отсутствуют-

Media Info

Общее
Полное имя : C:\Users\Roman\Pictures\Золотая невеста\Zolotaya.Nevesta.2014.WEBDLRip.1400Mb.avi
Формат : AVI
Формат/Информация : Audio Video Interleave
Размер файла : 1,37 Гбайт
Продолжительность : 1 ч. 29 м.
Общий поток : 2184 Кбит/сек
Программа кодирования : VirtualDubMod 1.5.10.3 | www.virtualdub-fr.org || (build 2550/release)
Библиотека кодирования : VirtualDubMod build 2550/release
Видео
Идентификатор : 0
Формат : MPEG-4 Visual
Профиль формата : Advanced [email protected]
Параметр BVOP формата : 2
Параметр QPel формата : Нет
Параметр GMC формата : Без точки перехода
Параметр матрицы формата : Default (MPEG)
Идентификатор кодека : XVID
Идентификатор кодека/Подсказка : XviD
Продолжительность : 1 ч. 29 м.
Битрейт : 1983 Кбит/сек
Ширина : 720 пикселей
Высота : 400 пикселей
Соотношение сторон : 16:9
Частота кадров : 25,000 кадров/сек
Цветовое пространство : YUV
Субдискретизация насыщенности : 4:2:0
Битовая глубина : 8 бит
Тип развёртки : Прогрессивная
Метод сжатия : С потерями
Бит/(Пиксели*Кадры) : 0.275
Размер потока : 1,24 Гбайт (91%)
Библиотека кодирования : XviD 1.2.1 (UTC 2008-12-04)
Аудио
Идентификатор : 1
Формат : AC-3
Формат/Информация : Audio Coding 3
Расширение режима : CM (complete main)
Параметр Endianness формата : Big
Идентификатор кодека : 2000
Продолжительность : 1 ч. 29 м.
Вид битрейта : Постоянный
Битрейт : 192 Кбит/сек
Каналы : 2 канала
Расположение каналов : Front: L R
Частота : 44,1 КГц
Битовая глубина : 16 бит
Метод сжатия : С потерями
Размер потока : 123 Мбайт (9%)
Выравнивание : Разделение по промежуткам
Продолжительность промежутка : 40 мс. (1,00 видеокадр)
Время предзагрузки промежутка : 500 мс.
-

Скриншоты

-
Яндекс.Метрика
Рейтинг@Mail.ru