Несломленный / Unbroken (Анджелина Джоли / Angelina Jolie) [2014 г., драма, военный, биография, спорт, DVDScreener] Dub (Звук с TS)

 

Создавать темы 23-Янв-2015 04:41

-Несломленный / Unbroken- Производство: США
Год выпуска: 2014 г.
Жанр: драма, военный, биография, спорт
Продолжительность: 02:17:28
Мировая премьера: 17 ноября 2014
Российская премьера: 15 января 2015, «UPI»
Перевод: Профессиональный (полное дублирование) [Звук с TS]-Режиссер: Анджелина Джоли / Angelina Jolie
В ролях: Джек О'Коннелл, Донал Глисон, Такамаса Исихара, Гаррет Хедлунд, Финн Уиттрок, Мэттью Крокер, Джай Кортни, Маддалена Искьяле, Винченцо Амато, Джон Магаро-Описание: Фильм основан на реальных событиях и рассказывает об американце Луи Замперини, который принимал участие в Олимпийских играх 1936 года в Берлине. Он не одержал победу в финальном забеге, но, по какой-то причине, снискал расположение Гитлера, который пригласил его к себе в ложу. Предполагалось, что Замперини примет участие и в следующих Олимпийских играх, но из-за начала Второй мировой войны он был вынужден отправиться на фронт. Его самолет был сбит над Японией, а сам Замперини попал в плен к японцам, где пережил многочисленные пытки. Домой он вернулся уже лишь после окончания войны.- -Качество видео: DVDScreener
Контейнер: AVI
Видео кодек: XviD
Аудио кодек: AC3
Видео: 720x304 (2.37:1), 23.976 fps, XviD build 50 ~1939 kbps avg, 0.37 bit/pixel
Аудио: 48 kHz, AC3 Dolby Digital, 2/0 (L,R) ch, ~192 kbps
Cубтитры: отсутствуют

Media Info

General
Complete name : D:\Unbroken.2014.D.DVDScr.2100MB.avi
Format : AVI
Format/Info : Audio Video Interleave
Format profile : OpenDML
File size : 2.05 GiB
Duration : 2h 17mn
Overall bit rate : 2 138 Kbps
Writing application : VirtualDubMod 1.5.10.3 | www.virtualdub-fr.org || (build 2550/release)
Video
ID : 0
Format : MPEG-4 Visual
Format profile : Advanced [email protected]
Format settings, BVOP : 2
Format settings, QPel : No
Format settings, GMC : No warppoints
Format settings, Matrix : Default (MPEG)
Codec ID : XVID
Codec ID/Hint : XviD
Duration : 2h 17mn
Bit rate : 1 934 Kbps
Width : 720 pixels
Height : 304 pixels
Display aspect ratio : 2.35:1
Frame rate : 23.976 fps
Color space : YUV
Chroma subsampling : 4:2:0
Bit depth : 8 bits
Scan type : Progressive
Compression mode : Lossy
Bits/(Pixel*Frame) : 0.368
Stream size : 1.86 GiB (90%)
Writing library : XviD 1.2.1 (UTC 2008-12-04)
Audio
ID : 1
Format : AC-3
Format/Info : Audio Coding 3
Mode extension : CM (complete main)
Format settings, Endianness : Big
Codec ID : 2000
Duration : 2h 17mn
Bit rate mode : Constant
Bit rate : 192 Kbps
Channel(s) : 2 channels
Channel positions : Front: L R
Sampling rate : 48.0 KHz
Bit depth : 16 bits
Compression mode : Lossy
Stream size : 189 MiB (9%)
Alignment : Split accross interleaves
Interleave, duration : 42 ms (1.00 video frame)
Interleave, preload duratio : 500 ms

Скриншоты

Яндекс.Метрика
Рейтинг@Mail.ru