Колония / Double Team (Цуй Харк / Tsui Hark) [1997 г., боевик, триллер, комедия, HDTVRip-AVC, 720p] MVO + AVO (Гаврилов, Живов, Антонов) + original (Eng)

 

Создавать темы 23-Янв-2015 04:40

Колония / Double Team
Год выпуска: 1997
Производство: США
Жанр: боевик, триллер, комедия
Продолжительность: 01:33:00
Перевод: Профессиональный (многоголосый, закадровый) MVO
Перевод: Авторский (одноголосый, закадровый) Андрей Гаврилов, Юрий Живов, Николай Антонов
Оригинальный аудиопоток: английский
Субтитры: отсутствуют
Режиссер: Цуй Харк / Tsui Hark
В ролях: Жан-Клод Ван Дамм, Дэннис Родман, Микки Рурк, Пол Фримен, Наташа Линдинжер, Валерия Кавалли, Джей Бенедикт, Джоэлль Дэво-Вуллион, Бруно Билотта, Марио Опинато
Описание: Жан-Клод в роли секретного суперагента Джека Куинна. Ему поручают убрать опасного международного террориста Ставроса, но в самый ответственный момент, когда нужно было нажимать на спусковой курок, Ставрос обнимал жену и ребенка. Рука Джека дрогнула, и он упустил врага, хотя жена и сын его погибли.
Теперь у Ставроса были и веские личные счеты с теми, кто заказал его убийство. Итак, Джек совершил ошибку, а такое не прощается, и он был помещен в Колонию, став «мертвецом» для всего остального мира, включая собственную семью. Здесь обитали «мертвые» лучшие шпионы и агенты со всей планеты.
Они были слишком опасны, чтобы жить, и слишком дорого стоили, чтобы быть убитыми. Их использовали для анализа и отработки экстремальных ситуаций. Однако Куинн не смирился и совершил невероятный побег, чтобы довести задание до конца. Он находит себе партнера, эксцентричного торговца оружием, чернокожего лихого парня с единственной страстью — разрушать. У них разный стиль, но одна задача…
, КиноПоиск
Качество видео: HDTVRip-AVC
Контейнер: MKV
Стандарт разрешения: 720p
Видео кодек: H.264
Аудио кодек: AC3
Видео: 1280x542, 23.976 fps, 3565 Kbps, 0.214 Bt/Px
Аудио : AC-3, 384 Kbps, 6 ch, 48.0 KHz Rus MVO
Аудио : AC-3, 384 Kbps, 6 ch, 48.0 KHz Rus Гаврилов
Аудио : AC-3, 192 Kbps, 2 ch, 48.0 KHz Rus Живов
Аудио : AC-3, 192 Kbps, 2 ch, 48.0 KHz Eng Антонов
Аудио : AC-3, 384 Kbps, 6 ch, 48.0 KHz Eng Original

Доп. информация

За появление дороги Николая Антонова , говорим спасибо: Ansent, ale_x2008, DeASS.

Media Info

J:\VAN_DAME__DOUBLE TEAM(КОЛОНИЯ).mkv
General
Unique ID : 202613587626243045240557381333020915625 (0x986DF5225192454B9EC92FC57A0537A9)
Complete name : J:\VAN_DAME__DOUBLE TEAM(КОЛОНИЯ).mkv
Format : Matroska
Format version : Version 1
File size : 3.38 GiB
Duration : 1h 33mn
Overall bit rate : 5 204 Kbps
Encoded date : UTC 2015-01-22 00:35:47
Writing application : mkvmerge v2.5.3 ('Boogie') built on Mar 7 2009 15:00:41
Writing library : libebml v0.7.7 + libmatroska v0.8.1
Video #1
ID : 1
Format : AVC
Format/Info : Advanced Video Codec
Format profile : [email protected]
Format settings, CABAC : Yes
Format settings, ReFrames : 12 frames
Codec ID : V_MPEG4/ISO/AVC
Duration : 1h 33mn
Bit rate : 3 565 Kbps
Width : 1 280 pixels
Height : 542 pixels
Display aspect ratio : 2.35:1
Frame rate mode : Constant
Frame rate : 23.976 fps
Color space : YUV
Chroma subsampling : 4:2:0
Bit depth : 8 bits
Scan type : Progressive
Bits/(Pixel*Frame) : 0.214
Stream size : 2.32 GiB (68%)
Writing library : x264 core 130 r2273 b3065e6
Encoding settings : cabac=1 / ref=12 / deblock=1:-2:-1 / analyse=0x3:0x133 / me=umh / subme=11 / psy=1 / psy_rd=1.00:0.15 / mixed_ref=1 / me_range=32 / chroma_me=1 / trellis=2 / 8x8dct=1 / cqm=0 / deadzone=21,11 / fast_pskip=1 / chroma_qp_offset=-3 / threads=6 / lookahead_threads=1 / sliced_threads=0 / nr=0 / decimate=1 / interlaced=0 / bluray_compat=0 / constrained_intra=0 / bframes=8 / b_pyramid=2 / b_adapt=2 / b_bias=0 / direct=1 / weightb=1 / open_gop=0 / weightp=2 / keyint=250 / keyint_min=23 / scenecut=40 / intra_refresh=0 / rc_lookahead=50 / rc=crf / mbtree=1 / crf=18.0 / qcomp=0.60 / qpmin=0 / qpmax=51 / qpstep=4 / ip_ratio=1.40 / aq=1:1.00
Language : English
Default : Yes
Forced : No
Audio #2
ID : 2
Format : AC-3
Format/Info : Audio Coding 3
Mode extension : CM (complete main)
Format settings, Endianness : Big
Codec ID : A_AC3
Duration : 1h 33mn
Bit rate mode : Constant
Bit rate : 384 Kbps
Channel(s) : 6 channels
Channel positions : Front: L C R, Side: L R, LFE
Sampling rate : 48.0 KHz
Bit depth : 16 bits
Compression mode : Lossy
Stream size : 255 MiB (7%)
Title : MVO
Language : Russian
Default : Yes
Forced : No
Audio #3
ID : 3
Format : AC-3
Format/Info : Audio Coding 3
Mode extension : CM (complete main)
Format settings, Endianness : Big
Codec ID : A_AC3
Duration : 1h 33mn
Bit rate mode : Constant
Bit rate : 384 Kbps
Channel(s) : 6 channels
Channel positions : Front: L C R, Side: L R, LFE
Sampling rate : 48.0 KHz
Bit depth : 16 bits
Compression mode : Lossy
Stream size : 255 MiB (7%)
Title : AVO Гаврилов
Language : Russian
Default : No
Forced : No
Audio #4
ID : 4
Format : AC-3
Format/Info : Audio Coding 3
Mode extension : CM (complete main)
Format settings, Endianness : Big
Codec ID : A_AC3
Duration : 1h 33mn
Bit rate mode : Constant
Bit rate : 192 Kbps
Channel(s) : 2 channels
Channel positions : Front: L R
Sampling rate : 48.0 KHz
Bit depth : 16 bits
Compression mode : Lossy
Stream size : 128 MiB (4%)
Title : AVO Живов
Language : Russian
Default : No
Forced : No
Audio #5
ID : 5
Format : AC-3
Format/Info : Audio Coding 3
Mode extension : CM (complete main)
Format settings, Endianness : Big
Codec ID : A_AC3
Duration : 1h 33mn
Bit rate mode : Constant
Bit rate : 192 Kbps
Channel(s) : 2 channels
Channel positions : Front: L R
Sampling rate : 48.0 KHz
Bit depth : 16 bits
Compression mode : Lossy
Stream size : 128 MiB (4%)
Title : AVO Антонов
Language : Russian
Default : No
Forced : No
Audio #6
ID : 6
Format : AC-3
Format/Info : Audio Coding 3
Mode extension : CM (complete main)
Format settings, Endianness : Big
Codec ID : A_AC3
Duration : 1h 33mn
Bit rate mode : Constant
Bit rate : 384 Kbps
Channel(s) : 6 channels
Channel positions : Front: L C R, Side: L R, LFE
Sampling rate : 48.0 KHz
Bit depth : 16 bits
Compression mode : Lossy
Stream size : 255 MiB (7%)
Language : English
Default : No
Forced : No

log x.264

x264 [info]: frame I:1119  Avg QP:15.91  size:109670
x264 [info]: frame P:35294 Avg QP:19.10 size: 37645
x264 [info]: frame B:97387 Avg QP:22.34 size: 11342
x264 [info]: consecutive B-frames: 2.8% 3.8% 8.5% 63.7% 9.7% 9.2% 1.2% 0.6% 0.6%
x264 [info]: mb I I16..4: 5.3% 83.1% 11.6%
x264 [info]: mb P I16..4: 1.8% 20.7% 2.3% P16..4: 27.7% 30.1% 10.2% 2.2% 0.4% skip: 4.6%
x264 [info]: mb B I16..4: 0.2% 3.3% 0.4% B16..8: 31.8% 18.5% 2.8% direct: 7.2% skip:35.7% L0:36.9% L1:46.3% BI:16.8%
x264 [info]: 8x8 transform intra:83.8% inter:58.4%
x264 [info]: coded y,uvDC,uvAC intra: 89.9% 69.4% 26.3% inter: 25.2% 20.2% 1.2%
x264 [info]: i16 v,h,dc,p: 20% 18% 4% 58%
x264 [info]: i8 v,h,dc,ddl,ddr,vr,hd,vl,hu: 9% 10% 6% 9% 12% 12% 14% 12% 16%
x264 [info]: i4 v,h,dc,ddl,ddr,vr,hd,vl,hu: 10% 13% 3% 8% 14% 13% 14% 10% 14%
x264 [info]: i8c dc,h,v,p: 23% 33% 20% 24%
x264 [info]: Weighted P-Frames: Y:4.5% UV:1.9%
x264 [info]: ref P L0: 51.6% 10.3% 18.9% 4.7% 4.0% 2.5% 2.4% 1.2% 1.3% 1.0% 1.0% 0.9% 0.2% 0.0%
x264 [info]: ref B L0: 87.3% 7.8% 2.0% 0.9% 0.6% 0.5% 0.3% 0.2% 0.2% 0.1% 0.1%
x264 [info]: ref B L1: 97.1% 2.9%
x264 [info]: kb/s:3664.09
x264 [total]: encoded 133800 frames, 3.88 fps, 3664.09 kb/s

Скриншоты

Яндекс.Метрика
Рейтинг@Mail.ru