Новая подружка / Une nouvelle amie (Франсуа Озон / François Ozon) [2014 г., драма, Blu-Ray, 1080i] Dub

 

Создавать темы 23-Янв-2015 04:36

-Новая подружка / Une nouvelle amie 18+-- Производство: Франция
Год выпуска: 2014 г.
Жанр: драма
Продолжительность: 01:50:00
Мировая премьера: 6 сентября 2014
Российская премьера: 13 ноября 2014
Перевод: Профессиональный (полное дублирование)
Режиссер: Франсуа Озон / François Ozon-В ролях: Ромен Дюрис, Анаис Демустье, Рафаэль Персонас, Изильд Ле Беско, Аврора Клеман, Жан-Клод Боль-Редда, Брюно Перар, Клодин Чатель, Анита Жилье, Алекс Фонджа-Описание: Клэр переживает смерть лучшей подруги — они были неразлучны с детства, делили радости и переживания отрочества, одновременно вышли замуж. Убитый горем вдовец предлагает Клэр остроумный способ выбраться из депрессии…-
Качество видео: Blu-Ray
Контейнер: M2TS
Стандарт разрешения: 1080i
Видео кодек: AVC ([email protected])
Аудио кодек: AC3
Видео: 1920х1080, 27,7 Мбит/сек, 24,000 кадра/сек
Аудио: 448 Кбит/сек, 6 каналов, 48,0 КГц, русский
Аудио #2: 448 Кбит/сек, 6 каналов, 48,0 КГц, французский
Cубтитры: отсутствуют

Media Info

Общее
Формат : BDAV
Формат/Информация : Blu-ray Video
Размер файла : 23,0 Гбайт
Продолжительность : 1 ч. 50 м.
Режим общего битрейта : Переменный
Общий поток : 29,8 Мбит/сек
Максимальный общий битрейт : 48,0 Мбит/сек
Видео
Идентификатор : 4113 (0x1011)
Идентификатор меню : 1 (0x1)
Формат : AVC
Формат/Информация : Advanced Video Codec
Профиль формата : [email protected]
Параметр CABAC формата : Да
Параметр ReFrames формата : 4 кадра
Параметр GOP формата : M=3, N=12
Идентификатор кодека : 27
Продолжительность : 1 ч. 50 м.
Вид битрейта : Переменный
Битрейт : 27,7 Мбит/сек
Максимальный битрейт : 35,0 Мбит/сек
Ширина : 1920 пикселей
Высота : 1080 пикселей
Соотношение сторон : 16:9
Частота кадров : 24,000 кадра/сек
Стандарт вещания : NTSC
Цветовое пространство : YUV
Субдискретизация насыщенности : 4:2:0
Битовая глубина : 8 бит
Тип развёртки : Прогрессивная
Бит/(Пиксели*Кадры) : 0.557
Размер потока : 21,4 Гбайт (93%)
Основные цвета : BT.709
Характеристики трансфера : BT.709
Коэффициенты матрицы : BT.709
colour_range : Limited
Аудио #1
Идентификатор : 4352 (0x1100)
Идентификатор меню : 1 (0x1)
Формат : AC-3
Формат/Информация : Audio Coding 3
Расширение режима : CM (complete main)
Параметр Endianness формата : Big
Идентификатор кодека : 129
Продолжительность : 1 ч. 50 м.
Вид битрейта : Постоянный
Битрейт : 448 Кбит/сек
Каналы : 6 каналов
Расположение каналов : Front: L C R, Side: L R, LFE
Частота : 48,0 КГц
Битовая глубина : 16 бит
Метод сжатия : С потерями
Размер потока : 354 Мбайт (2%)
Аудио #2
Идентификатор : 4353 (0x1101)
Идентификатор меню : 1 (0x1)
Формат : AC-3
Формат/Информация : Audio Coding 3
Расширение режима : CM (complete main)
Параметр Endianness формата : Big
Идентификатор кодека : 129
Продолжительность : 1 ч. 50 м.
Вид битрейта : Постоянный
Битрейт : 448 Кбит/сек
Каналы : 6 каналов
Расположение каналов : Front: L C R, Side: L R, LFE
Частота : 48,0 КГц
Битовая глубина : 16 бит
Метод сжатия : С потерями
Размер потока : 354 Мбайт (2%)
Текст
Идентификатор : 4608 (0x1200)
Идентификатор меню : 1 (0x1)
Формат : PGS
Идентификатор кодека : 144
Продолжительность : 1 ч. 50 м.

Скриншоты

Яндекс.Метрика
Рейтинг@Mail.ru