[ Сегодня на трекере фрилич! Идет свободное скачивание без начисления Download ]

Весна, лето, осень, зима... и снова весна / Bom yeoreum gaeul gyeoul geurigo bom (Ким Ки Дук / Kim Ki Duk) [2003 г., драма, BDRip-AVC] MVO (Gears Media) + Original (Kor) + Sub (Rus, Eng)

 

Создавать темы 23-Янв-2015 04:26

-Весна, лето, осень, зима... и снова весна / Bom yeoreum gaeul gyeoul geurigo bom-«Любовь - лекарство, от которого надо уметь отказаться»- Производство: Корея Южная, Германия, Cineclick Asia, Cinesoul, Korea Pictures
Год выпуска: 2003 г.
Жанр: драма
Продолжительность: 01:45:06
Мировая премьера: 14 августа 2003
Российская премьера: 15 января 2004, «Пан Терра»
Дата выхода DVD: 16 декабря 2008, «Ruscico»
Перевод: Профессиональный (многоголосый, закадровый) [Gears Media]
Оригинальный аудиопоток: корейский-Режиссер: Ким Ки Дук / Kim Ki Duk
В ролях: Ён Су О, Ким Ки Дук, Юн Мин Ким, Чжэ Кюн Су, Ю Чжин Ха, Чон Хо Ким, Чун Юн Ким, Дэ Хан Чжи, Мин Чхве, Чжи А Пак, Мин Юн Сон-Описание: Никому не дано нарушить смену времен года, когда вначале все рождается, затем растет, а потом угасает. Ход жизни неподвластен даже двум монахам, живущим в плавучей хижине на озере, окруженном горами.
По мере наступления времени года их души наполняются энергией, что ведет как к чувству одухотворенности, так и к трагедии. Что еще важно, они не могут вырваться из круга жизни, желаний, страданий и страстей, которым подвержены все из нас.
Под строгим взглядом Старого Монаха Молодой Монах познает потерю невинности, когда игра становится жестокой…, познает любовь, когда в их замкнутом мире появляется женщина…, познает преступную власть зависти и одержимости…, цену искупления, просветление опытом. И хотя одно время года неминуемо сменяет другое, их хижина, подобно колыбели духа, находится между настоящим и будущим…- -Качество видео: BDRip-AVC (Рип с Blu-ray)
Контейнер: MKV
Видео кодек: H.264
Аудио кодек: AC3
Видео: 1024x576 (16:9), 2 725 Kbps, 23.976 fps, 0.193 bit/pix
Аудио: 320 Kbps, 2 ch, 48.0 KHz - Rus
Аудио #2: 448 Kbps, 6 ch, 48.0 KHz - Kor
Cубтитры: Русские, английские
Формат субтитров: softsub (SRT)

Награды

Log x264

x264 [info]: frame I:995 Avg QP:18.07 size:108547
x264 [info]: frame P:30487 Avg QP:21.26 size: 28720
x264 [info]: frame B:119717 Avg QP:23.11 size: 9720

Media Info

General
Unique ID : 246082503373744134679991897358078986336 (0xB921C425ED6C2C3798815EA983EE4860)
Complete name : C:\Users\Ivan\Desktop\Bom.yeoreum.gaeul.gyeoul.geurigo.bom.2003.BDRip-AVC.mkv
Format : Matroska
Format version : Version 4 / Version 2
File size : 2.57 GiB
Duration : 1h 45mn
Overall bit rate : 3 494 Kbps
Movie name : Rip by LPPI
Encoded date : UTC 2015-01-22 13:14:40
Writing application : mkvmerge v7.5.0 ('Glass Culture') 64bit built on Jan 4 2015 16:48:44
Writing library : libebml v1.3.1 + libmatroska v1.4.2
DURATION : 01:45:05.856000000
NUMBER_OF_FRAMES : 197058
NUMBER_OF_BYTES : 252234240
_STATISTICS_WRITING_APP : mkvmerge v7.5.0 ('Glass Culture') 64bit built on Jan 4 2015 16:48:44
_STATISTICS_WRITING_DATE_UT : 2015-01-22 13:14:40
_STATISTICS_TAGS : BPS DURATION NUMBER_OF_FRAMES NUMBER_OF_BYTES
Video
ID : 1
Format : AVC
Format/Info : Advanced Video Codec
Format profile : [email protected]
Format settings, CABAC : Yes
Format settings, ReFrames : 9 frames
Codec ID : V_MPEG4/ISO/AVC
Duration : 1h 45mn
Bit rate : 2 725 Kbps
Width : 1 024 pixels
Height : 576 pixels
Display aspect ratio : 16:9
Frame rate mode : Constant
Frame rate : 23.976 fps
Color space : YUV
Chroma subsampling : 4:2:0
Bit depth : 8 bits
Scan type : Progressive
Bits/(Pixel*Frame) : 0.193
Stream size : 1.95 GiB (76%)
Title : Весна, лето, осень, зима... и снова весна / Bom yeoreum gaeul gyeoul geurigo bom
Writing library : x264 core 130 r2273 b3065e6
Encoding settings : cabac=1 / ref=9 / deblock=1:-3:-3 / analyse=0x3:0x133 / me=umh / subme=11 / psy=1 / psy_rd=1.00:0.15 / mixed_ref=0 / me_range=48 / chroma_me=1 / trellis=2 / 8x8dct=1 / cqm=0 / deadzone=21,11 / fast_pskip=0 / chroma_qp_offset=-3 / threads=12 / lookahead_threads=3 / sliced_threads=0 / nr=0 / decimate=0 / interlaced=0 / bluray_compat=0 / constrained_intra=0 / bframes=10 / b_pyramid=2 / b_adapt=2 / b_bias=0 / direct=3 / weightb=1 / open_gop=0 / weightp=2 / keyint=250 / keyint_min=23 / scenecut=40 / intra_refresh=0 / rc=2pass / mbtree=0 / bitrate=2725 / ratetol=1.0 / qcomp=0.60 / qpmin=0 / qpmax=69 / qpstep=4 / cplxblur=20.0 / qblur=0.5 / ip_ratio=1.40 / pb_ratio=1.30 / aq=1:1.00
Language : Korean
Default : Yes
Forced : No
DURATION : 01:45:06.259000000
NUMBER_OF_FRAMES : 151199
NUMBER_OF_BYTES : 2147291581
_STATISTICS_WRITING_APP : mkvmerge v7.5.0 ('Glass Culture') 64bit built on Jan 4 2015 16:48:44
_STATISTICS_WRITING_DATE_UT : 2015-01-22 13:14:40
_STATISTICS_TAGS : BPS DURATION NUMBER_OF_FRAMES NUMBER_OF_BYTES
Audio #1
ID : 2
Format : AC-3
Format/Info : Audio Coding 3
Mode extension : CM (complete main)
Format settings, Endianness : Big
Codec ID : A_AC3
Duration : 1h 45mn
Bit rate mode : Constant
Bit rate : 320 Kbps
Channel(s) : 2 channels
Channel positions : Front: L R
Sampling rate : 48.0 KHz
Bit depth : 16 bits
Compression mode : Lossy
Stream size : 241 MiB (9%)
Title : MVO (Gears Media)
Language : Russian
Default : Yes
Forced : No
Audio #2
ID : 3
Format : AC-3
Format/Info : Audio Coding 3
Mode extension : CM (complete main)
Format settings, Endianness : Big
Codec ID : A_AC3
Duration : 1h 45mn
Bit rate mode : Constant
Bit rate : 448 Kbps
Channel(s) : 6 channels
Channel positions : Front: L C R, Side: L R, LFE
Sampling rate : 48.0 KHz
Bit depth : 16 bits
Compression mode : Lossy
Stream size : 337 MiB (13%)
Title : Original
Language : Korean
Default : No
Forced : No
Text #1
ID : 4
Format : UTF-8
Codec ID : S_TEXT/UTF8
Codec ID/Info : UTF-8 Plain Text
Language : Russian
Default : No
Forced : No
Text #2
ID : 5
Format : UTF-8
Codec ID : S_TEXT/UTF8
Codec ID/Info : UTF-8 Plain Text
Language : English
Default : No
Forced : No
Menu
00:00:00.000 : :Chapter 1
00:10:00.000 : :Chapter 2
00:20:00.000 : :Chapter 3
00:30:00.000 : :Chapter 4
00:40:00.000 : :Chapter 5
00:50:00.000 : :Chapter 6
01:00:00.000 : :Chapter 7
01:10:00.000 : :Chapter 8
01:20:00.000 : :Chapter 9
01:30:00.000 : :Chapter 10
01:40:00.000 : :Chapter 11

Скриншоты

Яндекс.Метрика
Рейтинг@Mail.ru