[ Сегодня на трекере фрилич! Идет свободное скачивание без начисления Download ]

Дядюшка Бунми, который помнит свои прошлые жизни / Loong Boonmee raleuk chat (Апитчатпон Вирасетакул / Apichatpong Weerasethakul) [2010 г., фэнтези, драма, DVDRip] MVO (Лицензия)

 

Создавать темы 23-Янв-2015 04:25

-Дядюшка Бунми, который помнит свои прошлые жизни / Loong Boonmee raleuk chat- Производство: Таиланд, Германия, Франция, Великобритания, Нидерланды, Испания
Год выпуска: 2010 г.
Жанр: фэнтези, драма
Продолжительность: 01:48:44
Мировая премьера: 21 мая 2010
Российская премьера: 28 апреля 2011, «Экспонента»
Дата выхода DVD: 16 июня 2011, «Новый Диск»
Перевод: Профессиональный (многоголосый, закадровый) [Лицензия]-Режиссер: Апитчатпон Вирасетакул / Apichatpong Weerasethakul
В ролях: Танапат Саисаймар, Дженджира Понгпас, Сакда Каэвбуади, Наттхакарн Апхаивонкм, Геерасак Калхонг, Канокпорн Тонгарам, Маттье Ли, Вьен Пимди-Описание: Дядюшка Бунми страдает острой почечной недостаточностью и решает провести остаток дней у родственников в деревне. Здесь ему являются призраки умершей жены и пропавшего сына и принимают его в свои крылатые объятья. Раздумывая над причинами своей болезни, дядюшка Бунми вместе со своей семьей пересекает джунгли и достигает пещеры на вершине горы, где родилась его первая жизнь…- -Качество видео: DVDRip
Контейнер: AVI
Видео кодек: XviD
Аудио кодек: AC3
Видео: 720x384 (1.88:1), 25 fps, XviD build 50 ~1464 kbps avg, 0.21 bit/pixel
Аудио: 48 kHz, AC3 Dolby Digital, 3/2 (L,C,R,l,r) + LFE ch, ~448 kbps
Cубтитры: отсутствуют

Награды

Media Info

General
Complete name : C:\Users\Ivan\Desktop\Loong.Boonmee.raleuk.chat.2010.DVDRip.avi
Format : AVI
Format/Info : Audio Video Interleave
File size : 1.46 GiB
Duration : 1h 48mn
Overall bit rate : 1 923 Kbps
Writing application : VirtualDubMod 1.5.10.3 | www.virtualdub-fr.org || (build 2550/release)
Writing library : VirtualDubMod build 2550/release
Video
ID : 0
Format : MPEG-4 Visual
Format profile : Advanced [email protected]
Format settings, BVOP : 2
Format settings, QPel : No
Format settings, GMC : No warppoints
Format settings, Matrix : Default (MPEG)
Codec ID : XVID
Codec ID/Hint : XviD
Duration : 1h 48mn
Bit rate : 1 465 Kbps
Width : 720 pixels
Height : 384 pixels
Display aspect ratio : 1.85:1
Frame rate : 25.000 fps
Color space : YUV
Chroma subsampling : 4:2:0
Bit depth : 8 bits
Scan type : Progressive
Compression mode : Lossy
Bits/(Pixel*Frame) : 0.212
Stream size : 1.11 GiB (76%)
Writing library : XviD 1.2.1 (UTC 2008-12-04)
Audio
ID : 1
Format : AC-3
Format/Info : Audio Coding 3
Mode extension : CM (complete main)
Format settings, Endianness : Big
Codec ID : 2000
Duration : 1h 48mn
Bit rate mode : Constant
Bit rate : 448 Kbps
Channel(s) : 6 channels
Channel positions : Front: L C R, Side: L R, LFE
Sampling rate : 48.0 KHz
Bit depth : 16 bits
Compression mode : Lossy
Stream size : 348 MiB (23%)
Alignment : Split accross interleaves
Interleave, duration : 40 ms (1.00 video frame)
Interleave, preload duratio : 500 ms

Скриншоты

Яндекс.Метрика
Рейтинг@Mail.ru