Готэм / Gotham / Сезон: 1 / Серии: 1-12 (22) (Дэнни Кэннон / Danny Cannon) [2014-2015 гг., триллер, драма, криминал, WEB-DL, 1080p] MVO (NewStudio) + Original (Eng) [обновляемая]

 

Создавать темы 23-Янв-2015 04:17

-Готэм / Gotham
«The good. The evil. The beginning»
(1 сезон)
-- Производство: США
Жанр: триллер, драма, криминал
Год выпуска: 2014 - 2015 гг.
Продолжительность: 12х ~00:44:00
Мировая премьера: 22 сентября 2014
Перевод: Профессиональный (многоголосый, закадровый) [NewStudio]
Оригинальный аудиопоток: английский
Режиссер: Дэнни Кэннон / Danny Cannon-В ролях: Бенжамин МакКензи, Шон Пертуи, Робин Тэйлор, Забрина Гевара, Эрин Ричардс, Донал Лог, Джада Пинкетт Смит, Дэвид Мазоуз, Камрен Бикондова, Кори Майкл Смит, ...-Описание: История о том, как Джеймс Гордон прошел нелегкий путь от детектива-новобранца до комиссара полиции.
- -Качество видео: WEB-DL
Контейнер: MKV
Стандарт разрешения: 1080p
Видео кодек: H.264/AVC
Аудио кодек: AC3
Видео: 1916x1076 at 23.976 fps, ~5000 kbps avg
Аудио: Russian: 48 kHz, AC3, 3/2 (L,C,R,l,r) + LFE ch, ~384.00 kbps avg |Многоголосый закадровый, NewStudio|
Аудио #2: English: 48 kHz, AC3, 3/2 (L,C,R,l,r) + LFE ch, ~384.00 kbps avg
Cубтитры: none

Список серий

01. Pilot / Пилот
02. Selina Kyle / Селина Кайл
03. The Baloonman / Шародув
04. Arkham / Аркам
05. Viper / Гадюка
06. Spirit of the Goat / Дух Козла
07. Penguin's Umbrella / Зонтик Пингвина
08. The Mask / Маска
09. Harvey Dent / Харви Дент
10. LoveCraft / Ловкрафт
11. Rogues' Gallery / Галерея преступников
12. What the Little Bird Told Him / Что напела маленькая птичка

Media Info

General
Complete name                    : Y:\Uploads\Pirat.Ca\Gotham - Season 01 (2014)[1080p.WEB-DL]\Gotham.s01e01.WEB-DL.1080p.NewStudio.mkv
Format                           : Matroska
File size                        : 2.01 GiB
Duration                         : 49mn 18s
Overall bit rate                 : 5 839 Kbps
Encoded date                     : UTC 2014-09-24 14:46:29
Writing application              : mkvmerge v6.9.1 ('Blue Panther') 64bit built on Apr 18 2014 18:23:38
Writing library                  : libebml v1.3.0 + libmatroska v1.4.1
Video
ID                               : 1
Format                           : AVC
Format/Info                      : Advanced Video Codec
Format profile                   : [email protected]
Format settings, CABAC           : Yes
Format settings, ReFrames        : 4 frames
Format settings, GOP             : M=2, N=32
Muxing mode                      : Container [email protected]
Codec ID                         : V_MPEG4/ISO/AVC
Duration                         : 49mn 18s
Bit rate mode                    : Variable
Bit rate                         : 4 955 Kbps
Width                            : 1 916 pixels
Height                           : 1 076 pixels
Display aspect ratio             : 16:9
Frame rate                       : 23.976 fps
Color space                      : YUV
Chroma subsampling               : 4:2:0
Bit depth                        : 8 bits
Scan type                        : Progressive
Bits/(Pixel*Frame)               : 0.100
Stream size                      : 1.71 GiB (85%)
Language                         : English
Color primaries                  : BT.709-5, BT.1361, IEC 61966-2-4, SMPTE RP177
Transfer characteristics         : BT.709-5, BT.1361
Matrix coefficients              : BT.709-5, BT.1361, IEC 61966-2-4 709, SMPTE RP177
Audio #1
ID                               : 2
Format                           : AC-3
Format/Info                      : Audio Coding 3
Mode extension                   : CM (complete main)
Codec ID                         : A_AC3
Duration                         : 49mn 18s
Bit rate mode                    : Constant
Bit rate                         : 384 Kbps
Channel(s)                       : 6 channels
Channel positions                : Front: L C R, Side: L R, LFE
Sampling rate                    : 48.0 KHz
Bit depth                        : 16 bits
Stream size                      : 135 MiB (7%)
Language                         : Russian
Audio #2
ID                               : 3
Format                           : AC-3
Format/Info                      : Audio Coding 3
Mode extension                   : CM (complete main)
Codec ID                         : A_AC3
Duration                         : 49mn 18s
Bit rate mode                    : Constant
Bit rate                         : 384 Kbps
Channel(s)                       : 6 channels
Channel positions                : Front: L C R, Side: L R, LFE
Sampling rate                    : 48.0 KHz
Bit depth                        : 16 bits
Stream size                      : 135 MiB (7%)
Language                         : English

Скриншоты

Внимание! Раздача ведётся путём добавления новых серий!

Раздача ведётся путём добавления новых серий; при каждом добавлении создаётся новый торрент.
Чтобы начать докачку новой серии, пользователям необходимо сделать следующее:
1. остановить скачивание,
2. удалить старый торрент у себя из клиента (старые серии удалять не надо),
3. скачать новый торрент и запустить его у себя в клиенте вместо старого, при этом указать клиенту путь в старую папку, куда и должно происходить скачивание новых серий.
Ваш клиент при этом должен произвести хеширование (проверку) старой папки (если не производит сам - помогите ему сделать это), и будет докачивать только те серии которых у вас ещё нет. Старые серии при этом не удаляются, а продолжают раздаваться!
Eсли вы уже удалили старые серии, то предотвратить повторную закачку старых серий можно, отжав галочку в соответствующих местах при запуске нового торрента. По возможности, желательно не удалять старые серии как можно дольше, чтобы релизёр не столько продолжал раздавать старые серии, а смог сконцентрироваться на новых.
Совет для тех, кто не хочет ждать перехеширования:
Создайте ещё одну папку рядом с папкой сериала (рядом, а не в ней!!!). Каждую новую серию после удачной загрузки копируйте в новую папку так чтобы ваша основная папка всегда была пуста. Когда ваш новый торрент предложит вам закачать все файлы, выберете только последнюю. Для сидирования же укажите адрес новой папки.
Рейтинг@Mail.ru