Dance_Dance_1.2014.г

 

Создавать темы 22-Янв-2015 23:50

- Dance! Dance! (vol. 1)- Название: Various Artists
Оригинальное название: Dance! Dance! (vol. 1)
Год выхода: 2014
Жанр: Dance, Eurodance, Techno, Pop, Клип

О сборнике:Dance! Dance! - сборник видеоклипов передовых коллективов 90х - 2000 годов в стиле электронной танцевальной музыки, возникшей в конце 80-х годов в Европе, включающей в себя многие стили и жанры эл. музыки того времени. В сборник вошли самые лучшие темы групп, звучавшие на всех танцполах того времени, сводившие с ума миллионы поклонников жанра по обе стороны океана... и как выяснилось актуальными и в наше время. Прекрасное видео, прекрасная музыка ! Приятного просмотра !!!-Страна: Россия
Продолжительность: 124 мин. / 02:04
Файл
Кодек: MPEG2
Качество: DVD9
Видео: PAL 4:3 ([email protected]) VBR 398 Mbps, 25.000 fps
Звук: LinearPCM, 2 ch, 48.0 KHz, 1536 Кbps

Треклист

01. MASTERBOY - Feel The Heat Of The Night
02. HADDAWAY - Rock My Heart
03. ALEXIA - Number One
04. 3-O-MATIC - Hand In Hand
05. CAPPELLA - Move It Up
06. DJ BOBO - Pray
07. FUN FACTORY - Close To You
08. E-ROTIC - Fred Come To Bed
09. TWENTY 4 SEVEN - Leave Them Alone
10. AQUA - My Oh My
11. MR. PRESIDENT - Up'n Away
12. LASGO - Surrender
13. 2 UNLIMITED - Jump For Joy
14. ATB - 9PM (Till I Come)
15. SIMONE ANGEL - Let This Feeling
16. CLOCK - Axel F
17. SASH! - Encore Une Fois
18. MR. PRESIDENT - Coco Jambo
19. HADDAWAY - Who Do You Love
20. ROBERT MILES - Children
21. SNAP - Rhythm Is A Dancer
22. PLAYAHITTY - The Summer Is Magic
23. PHARAO - I Show You Secret
24. DR. ALBAN - It's My Life
25. GALA - Freed From Desire
26. CAPPELLA - U Got 2 Let The Music
27. CAPTAIN HOLLYWOOD PROJECT - Only With You Intercord
28. TWENTY 4 SEVEN - Take Me Away
29. 2 UULIMITED - Let The Beat Control Your Body
30. DJ BOBO - Chihuahua
31. CAPTAIN JACK - Drill Instructor
32. ICE MC - Its A Rainy Day
33. MASTERBOY - Generation Of Love
34. FUN FACTORY - Pain

MediaInfo

General
Complete name : E:Dance! Dance! 1VTS_01_1.VOB
Format : MPEG-PS
File size : 977 MiB
Duration : 20s 80ms
Overall bit rate mode : Variable
Overall bit rate : 408 Mbps
Writing library : (c) 1998-2011 Womble Multimedia, Inc. / MPEG Video Wizard DVD 5.0.1.100 (03/2011) / May 27 2011
Video
ID : 224 (0xE0)
Format : MPEG Video
Format version : Version 2
Format profile : [email protected]
Format settings, BVOP : Yes
Format settings, Matrix : Default
Format settings, GOP : M=3, N=12
Duration : 20s 80ms
Bit rate mode : Variable
Bit rate : 398 Mbps
Maximum bit rate : 8 000 Kbps
Width : 720 pixels
Height : 576 pixels
Display aspect ratio : 4:3
Frame rate : 25.000 fps
Standard : PAL
Color space : YUV
Chroma subsampling : 4:2:0
Bit depth : 8 bits
Scan type : Progressive
Compression mode : Lossy
Bits/(Pixel*Frame) : 38.418
Time code of first frame : 00:00:00:00
Time code source : Group of pictures header
Stream size : 953 MiB (98%)
Writing library : (c) 1998-2011 Womble Multimedia, Inc. / MPEG Video Wizard DVD 5.0.1.100 (03/2011) / May 27 2011
Color primaries : BT.601 PAL
Transfer characteristics : BT.470 System B, BT.470 System G
Matrix coefficients : BT.601
Audio
ID : 189 (0xBD)-160 (0xA0)
Format : PCM
Format settings, Endianness : Big
Format settings, Sign : Signed
Muxing mode : DVD-Video
Duration : 19s 881ms
Bit rate mode : Constant
Bit rate : 1 536 Kbps
Channel(s) : 2 channels
Sampling rate : 48.0 KHz
Bit depth : 16 bits
Stream size : 3.64 MiB (0%)
Menu
-

Скриншоты:

Яндекс.Метрика
Рейтинг@Mail.ru